<?xml version="1.0" standalone="no"?>
<!DOCTYPE svg PUBLIC "-//W3C//DTD SVG 1.1//EN" "http://www.w3.org/Graphics/SVG/1.1/DTD/svg11.dtd" >
<svg xmlns="http://www.w3.org/2000/svg">
<metadata>
This is a custom SVG webfont generated by Font Squirrel.
Copyright   : Typeface  your company 2008 All Rights Reserved
</metadata>
<defs>
<font id="webfontorpPpUcQ" horiz-adv-x="1138" >
<font-face units-per-em="2048" ascent="1638" descent="-410" />
<missing-glyph horiz-adv-x="806" />
<glyph unicode=" "  horiz-adv-x="806" />
<glyph unicode="&#x09;" horiz-adv-x="806" />
<glyph unicode="&#xa0;" horiz-adv-x="806" />
<glyph unicode="!" horiz-adv-x="438" d="M154 -12q43 72 100 98h12q65 0 68 -92h-6l26 -62q0 -51 -47 -79q-113 8 -112 26q0 23 -41 74v35zM207 639l6 74l-6 18l100 375q0 37 113 293q43 145 67 145q68 0 68 -53v-33q33 -6 33 -20v-33q0 -18 -80 -148q-31 -89 -74 -159l-53 -146l-53 -153q-55 -227 -86 -228z" />
<glyph unicode="&#x22;" horiz-adv-x="600" d="M0 1245l18 43l-12 43q0 86 86 119q49 0 49 -39l27 -74l-39 -116v-31l-12 -100v-7l8 -36l-8 -7v-6q0 -78 39 -110q-29 -49 -64 -50q-46 0 -55 105l-12 12l6 76v37q-25 25 -25 61v56zM272 1110l7 41l-7 51l13 31l-6 24q0 172 92 173l24 8q25 0 43 -64l-12 -55l6 -31 l-12 -67l6 -31l-25 -113l7 -6l-7 -31l7 -49l-7 -43l7 -24l-7 -6l13 -13l-6 -6v-6l6 -25q-9 -31 -43 -30h-19q-31 0 -61 166l12 24z" />
<glyph unicode="#" d="M0 612l6 33l-6 35l23 16h6l6 -4q33 0 33 39q23 16 51 17q0 -16 35 -23l6 6h4l86 -10h6q57 14 80 49q16 0 16 45l17 57h6l-6 29q2 90 12 90l-6 6v13l16 96l-6 22q10 4 35 80q45 29 61 29q45 -20 45 -57v-97q0 -57 -26 -102l6 -29v-55q-35 -59 -35 -92v-17l29 7h10l51 -7 q57 18 57 62l62 256q43 51 68 51q33 0 63 -41l-6 -22q10 0 10 -23q25 0 25 -16l-45 -80q0 -18 -25 -62v-34l6 -7v-6l6 6h6q37 0 136 -45q47 -6 47 -39q0 -25 -58 -67l-12 10l-22 -6l-33 6l-35 -10h-16q0 -33 -74 -45q-18 -16 -19 -41q-20 -6 -51 -125l6 -29h52l22 6l17 -12 l47 12q27 -14 26 -45v-6q0 -39 -196 -96q-51 -45 -52 -68h-6l6 -41v-4l-6 -22l11 -64l-78 -45q-10 10 -74 17l-6 6v16q12 92 22 92q-10 29 -39 29h-6q-33 0 -61 -29h-6l-6 4q-14 0 -45 -71l16 -41l-12 -10v-7l12 -16q-51 -70 -102 -86q-51 0 -52 45l6 16h-6q-6 0 -28 41 q47 76 47 97v6q-90 25 -115 74l-29 38q33 113 119 113q125 27 125 51l6 19h6l-12 16l-74 6l-57 -6v6l-4 -6h-23q-59 0 -102 96zM375 471l6 -6v-6l33 6l28 -6q33 0 64 35q33 0 45 57h4l-4 4v6l4 45h-4q-111 0 -148 -67q-8 -51 -28 -52v-16z" />
<glyph unicode="$" horiz-adv-x="1073" d="M66 672l12 18l-6 6v13q12 12 12 47q41 10 53 47q18 0 53 41q12 0 64 57q160 83 160 123l-6 25q14 51 53 69q25 18 47 19q0 -12 47 -13l16 -22v-25l-6 -28l6 -7h7q41 18 106 19l4 -6h6l47 12q154 -39 154 -94q-12 -141 -88 -142h-19q-20 0 -104 54l-106 22l-7 -6v-4l-28 4 h-6q-16 0 -29 -110q-25 -35 -25 -66v-16q0 -12 35 -25l19 6l12 -12h51l37 12l22 -12l13 12q0 -12 35 -24l41 6q94 -76 94 -101q0 -39 12 -53q-18 -61 -70 -117q-63 -72 -159 -100q0 -25 -107 -45h-41l-51 -43l4 -4v-12l-10 -19l6 -16l-18 -12l6 -7v-6l-25 -76l6 -112v-35 q25 -25 25 -47v-29q-55 -94 -94 -94q-43 0 -88 76q57 88 57 217l24 119v6l-12 22l6 19l-6 6l-6 -6h-16q-43 0 -43 10l-29 -10l-18 6l-35 -6l-35 47l12 10l-6 19l29 59q0 18 59 35l41 -6q66 6 66 18l-13 29l19 6v35q0 76 -60 75h-6l-28 -6l-48 6h-6l-6 -6h-6q0 23 -72 41 l-28 66l6 6zM242 709q37 -25 53 -25q43 0 53 59l-10 13l4 35l-10 12q-18 -29 -84 -60zM449 449q16 -53 22 -54q160 27 160 88l16 25q-12 29 -88 29l-16 -7l-25 7h-6l-57 -35l-6 -6l6 -7v-18z" />
<glyph unicode="%" horiz-adv-x="1820" d="M0 645q0 195 123 266q0 51 90 52q10 14 45 24q84 -31 104 -57l121 18q104 -35 105 -90l-6 -6l6 -6v-19q0 -125 -66 -149q-33 -51 -207 -135q-49 0 -69 -39l-21 6l-57 -6q-78 12 -111 45q0 18 -45 26zM180 729q12 -37 33 -51q129 31 129 51v6q0 14 -39 27q0 33 -24 33 q-99 -25 -99 -66zM231 66v36q12 37 60 78q16 66 57 99l66 83q20 0 39 76l77 78q47 47 76 150q49 68 129 129q0 14 137 198q57 43 70 117q12 0 59 78l25 6v-6q39 27 72 26l63 -71v-6l-6 -27l6 -25q-35 -111 -51 -110q-45 -20 -70 -84l-26 -6l-13 12q-2 -10 -59 -39 q0 -27 -45 -57q-25 -59 -70 -72q-6 -45 -47 -45q-41 -76 -129 -186l8 -21q-27 -6 -65 -84q-31 0 -72 -78q-27 -12 -45 -63q-12 0 -84 -102v-21l45 -45v-6q-12 -78 -30 -78l-60 18l-57 -18q-44 35 -60 66zM659 279l19 12l-6 6v6q0 68 84 174q16 0 51 66q14 0 72 69 q39 0 39 33l30 21l8 -7l91 13q57 -10 141 -60l-6 -6v-18q20 -45 32 -45q0 -219 -155 -285q-12 0 -12 -18q-76 -12 -175 -78q-6 -20 -38 -21h-91q-84 1 -84 138zM936 381h12q33 0 33 12l-6 21h18v6l-18 18h-6l-33 -30v-27z" />
<glyph unicode="&#x26;" horiz-adv-x="1363" d="M43 90l14 41l-6 23q0 16 99 145q0 37 40 37q41 113 205 260l49 84l-28 111h8l-64 196l7 23l-21 90l6 8v6l-20 35l8 20l-14 64l14 14v43l-14 15q16 147 34 188l-8 6v8l8 6v9l-8 20q16 0 23 55q18 0 35 58q12 0 61 69l37 9q250 0 295 -107q125 -133 125 -272l-15 -15l9 -20 q-20 -156 -78 -240q-20 0 -21 -43q-23 -18 -43 -90l-84 -127q-49 -27 -69 -182l35 -105q12 0 34 -106h15q29 0 153 78q0 14 133 20l23 -26v-9q0 -31 -49 -83q0 -45 -156 -70q-55 -49 -55 -72q0 -119 92 -377l-8 -8q57 -125 112 -168q20 -23 21 -49v-35q0 -23 -49 -84v-14 l8 -6q-39 -29 -64 -29q-84 43 -84 90h7q-78 160 -113 338q-23 39 -29 105l-14 14l8 43q0 49 -55 111h-37q-301 -106 -414 -189q-98 35 -98 84zM311 293l35 -21q209 58 209 93q0 109 -61 182h-9q-63 -49 -110 -162q-31 -9 -49 -43q0 -14 20 -14l6 -6v-9h-12l-8 9h-6z M459 1346l20 -134l-8 -20l72 -301q2 -43 20 -43q76 57 76 104q14 0 57 72l-8 6v14q61 63 86 183l-6 26l20 29l-8 37h8l-14 41v55q-66 123 -156 156q-39 0 -83 -58q-70 -27 -70 -63l6 -6z" />
<glyph unicode="'" horiz-adv-x="487" d="M96 1552q6 86 19 93l-6 26l16 12h86l45 -28v-10q55 -35 55 -97q18 0 29 -137l-6 -20l6 -7l-18 -106l6 -6v-6l-11 -56l5 -16l-66 -57l-29 -13q-57 63 -57 97q0 29 -10 45l33 61l-7 6v6l13 23l-13 39l13 10q0 12 -23 12l-6 7v6l6 22q-14 57 -80 94z" />
<glyph unicode="(" horiz-adv-x="681" d="M0 492v18h12v37l-12 90l25 102l-13 19l19 108l-13 31l7 35v12q10 0 65 109l-6 6v6q27 33 102 215q82 68 109 129l31 53q18 0 102 60h25q90 -25 90 -84v-13q0 -86 -84 -120q-70 0 -92 -41q-25 -14 -60 -84q-12 0 -24 -56q-109 -125 -109 -204q-27 0 -65 -252l18 -164 l-12 -47q51 -180 90 -248q59 -74 96 -84q0 -29 90 -96q16 0 43 -35q78 0 90 -96l-6 -7l12 -12v-6h-43l-18 -12h-23q-68 8 -114 49h-6l-31 -6l-6 6v10h12v6q0 12 -65 56q0 18 -62 53q-111 186 -143 276h-6l12 68q-10 0 -31 106z" />
<glyph unicode=")" horiz-adv-x="681" d="M0 -129q104 71 178 184q219 244 248 428l6 25l19 18l-7 25l7 43l-7 6v6l25 113l-25 16v15h7l-7 61v6l7 37q-34 135 -50 135l-18 6l12 31q-68 104 -67 125q-23 49 -80 74q0 37 -33 37q-14 0 -16 49l-43 37q23 125 59 125l57 6l7 -6q15 -25 36 -25q123 -186 123 -217 q43 -29 70 -105q20 -88 47 -131l33 -110l-6 -25l24 -98l-18 -57l6 -50l-6 -6v-6l6 -18q-15 -43 -25 -43l13 -31l-70 -205q-66 -152 -123 -254q-59 -63 -98 -145q-12 0 -107 -82q-92 -55 -153 -55l-31 43v18z" />
<glyph unicode="*" horiz-adv-x="1253" d="M150 1022l10 37l-4 4v4q0 55 137 82q0 12 18 14l17 -4l28 4v21q-6 16 -45 30q0 16 -59 76v21q20 45 35 45l30 10h15q35 -16 100 -72q29 -10 92 -59l27 -4q45 6 45 29q49 61 49 133q14 4 27 63q20 37 76 37q22 -37 55 -61q0 -80 -41 -111l-4 -21l10 -10l18 4q8 -18 37 -18 l31 8h55l29 23h6l31 -7l31 17l38 -6l31 10q18 0 35 -37v-49q0 -23 -115 -41h-37l-4 4q-41 -35 -65 -35q-29 -31 -80 -41v-4q35 -41 90 -41l4 -4h35l57 -20l39 6q2 -10 41 -27l6 -14q-23 -78 -86 -78l-51 -4l-14 -10l-41 14h-10l-17 -8h-35q-49 0 -79 41q-76 35 -111 35 l-33 18h-8q-14 -4 -41 -70l10 -24q0 -45 -65 -107q-12 -25 -41 -24h-27q-45 31 -49 45q2 55 14 55l-4 4v10q14 18 56 35q10 49 24 62l-8 14q-20 0 -78 -35h-14l-31 6q-51 -14 -96 -41q-67 0 -96 66z" />
<glyph unicode="+" horiz-adv-x="931" d="M6 457v20q37 27 55 64l15 4l28 -10q193 18 193 73l8 21l-14 49l6 14l-16 74q8 0 34 53q14 0 15 15q27 16 49 16q8 -16 63 -39l7 -35l-7 -20l7 -21l-11 -61l4 -31l-4 -18l49 -11q137 14 138 39h18q47 0 105 -69l-35 -121q-63 0 -103 29h-20l-19 -15h-6l-4 4l-102 -18 q0 -16 -21 -17l-14 -28l4 -4v-6l-8 -39v-15q0 -63 49 -84l4 -4v-6q0 -16 -59 -82l-74 -14q-59 25 -59 53.5t-29 73.5q35 39 35 67l10 11q-6 49 -31 49q-96 -45 -184 -64q-70 39 -70 49v5l11 16q-17 21 -17 33z" />
<glyph unicode="," horiz-adv-x="808" d="M8 -100q37 276 109 376l59 142q0 29 92 108q59 111 125 111q0 -22 92 -43l43 8l17 -24v-17q0 -145 -125 -219q-162 -219 -195 -375l-8 -10v-6l8 -76q0 -31 -92 -94h-8q-117 99 -117 119z" />
<glyph unicode="-" horiz-adv-x="909" d="M0 629l18 37l-12 36q0 18 64 27q0 12 245 31q0 10 58 12q0 35 194 57l43 -12l88 12l52 -45l6 -24q0 -70 -189 -101l-24 13q-27 -20 -146 -33q-86 -31 -151 -37v6l-164 -43q-82 19 -82 64z" />
<glyph unicode="." horiz-adv-x="692" d="M129 88v25q33 106 47 106l150 17q111 -55 110 -140v-33l-10 -30l10 -27q-63 -55 -129 -55q-160 29 -160 90z" />
<glyph unicode="/" horiz-adv-x="1216" d="M0 20q14 0 143 162q14 0 27 43q20 0 80 113l143 246q108 154 142 264q25 0 45 94q28 0 79 154q51 63 99 213q20 0 45 94v92q27 78 125 137q80 0 80 -110v-33l-152 -385q-178 -341 -178 -375q-88 -100 -186 -299q-82 -145 -82 -170q-37 0 -125 -240l10 -32q-39 0 -72 -162 l8 -27l-45 -32q-115 8 -114 83q0 20 -64 62z" />
<glyph unicode="0" d="M0 360q0 332 315 654q213 160 392 160v-9l10 9h8q221 -61 221 -207q25 -33 25 -97h-8l8 -8v-39q0 -113 -103 -311q-27 0 -75 -115l-213 -235q-41 0 -95 -96l-170 -66h-16l-43 18l-43 -10q-154 80 -178 180q0 31 -27 68v66zM145 350q0 -170 119 -170q154 0 348 228 q223 260 224 387h8l-8 49v65q-33 100 -103 142l-8 -11h-8l-10 11q-90 0 -111 -76q-51 -53 -170 -94l-127 -95q-6 -49 -43 -49l-111 -272l9 -10l-9 -95v-10z" />
<glyph unicode="1" horiz-adv-x="1202" d="M0 723v57q0 172 272 187q178 70 646 407q0 27 88 60q117 -22 116 -68q0 -49 -20 -49l10 -68v-30l-420 -965l10 -109q-61 -145 -98 -145h-29q-55 0 -98 78l-18 20v39q0 88 96 223q49 55 49 138q39 12 98 194q33 104 109 215l-10 11v10q39 57 39 88v18h-11 q-102 -88 -225 -127q-82 -80 -254 -145q-150 -127 -194 -127q-56 0 -156 88z" />
<glyph unicode="2" horiz-adv-x="1206" d="M0 168l23 45l-13 43q74 6 180 125q43 0 91 45l43 23q66 0 290 256q158 195 158 403q0 16 -100 68l-13 10h-10l-180 -45q-61 -100 -111 -101v-12h-12v25q-55 0 -90 43v55q0 100 158 180v12h100v23h68l32 -23h13l32 23h46v-23h112q0 -23 33 -22q113 -135 113 -258 q0 -114 -136 -326q-66 -156 -358 -391l-33 -33q-78 -29 -78 -57l11 -33h325v23h211v22h13v-22h135v-23h43v23h12q0 -25 55 -45l45 -56l-22 -90l-10 13h-25v-23h-266v23h-35v-23h-78v-22h-201v-23h-315q0 23 -55 23v22h-23v-22h-33z" />
<glyph unicode="3" horiz-adv-x="1122" d="M0 911l18 45l-10 9v18l98 88q0 55 99 80q86 98 194 125q0 27 213 61v-8l80 19l8 -11v-8l11 8h16l8 -8l10 8h27q115 -102 115 -123v-53q0 -82 -107 -258q-106 -158 -178 -213q0 -29 213 -45q0 -12 72 -35q2 -16 53 -26l64 -72l16 -141q-45 -143 -168 -310 q-39 -68 -133 -98l-133 -61q-4 -33 -152 -64q-119 -61 -168 -61h-10l-8 10h-8q0 -18 -99 -37q-115 0 -114 205q0 86 143 141q0 12 78 43q35 0 71 -53l-8 -8v-8l8 -9v-10l-34 -51v-18h8q57 0 125 43h61q0 45 178 133q168 182 168 204q-25 61 -159 62l-160 18h-8l-29 -18 l-35 8l-141 -51q-76 20 -107 70l9 79l-9 27q47 45 70 117q41 0 242 114q86 104 133 134q43 131 61 149v10l-10 43l-25 -8q-70 6 -98 35h-8l-125 -61q-266 -174 -266 -283l-45 -37q-61 0 -107 80l10 8v10z" />
<glyph unicode="4" d="M0 567q4 63 43 117l8 29l-8 51l14 14l-6 23q51 57 74 248q37 51 57 182v29l-8 51l66 51q102 -6 102 -31v-6l-6 -45l6 -20h-6l6 -9v-43q-74 -104 -74 -168h-6l14 -28q-43 -47 -71 -146v-51l-17 -45h-6q0 -61 80 -72l37 37l43 -8q0 10 94 43l8 45l29 -14q137 31 137 131 q16 0 17 37v51l6 6l-15 43l15 23l-6 36q0 84 100 166h14q59 -23 60 -94q37 0 43 -72q-57 -88 -58 -108v-8q123 -25 123 -80q-33 -18 -37 -37l9 -6q0 -86 -72 -131h-8l-8 6h-7l-22 -37v-14h22v-15q-109 -53 -108 -100l-16 -16v-7l8 -51l-8 -8h-7l7 -6v-8l-7 -23l7 -35v-116 l79 -37l29 -35l-6 -31l6 -28q-80 -89 -80 -117q-25 -55 -63 -80l-37 6l-23 -6q-49 0 -80 145l43 146l-6 28l6 23l-6 29v14q14 14 15 59h8l-8 35v17l8 51l-8 6h-88q-88 -35 -246 -57q-16 -29 -45 -29l-29 29h-65l-52 63l-8 8h-6z" />
<glyph unicode="5" d="M0 641l8 55v64q23 23 23 63q37 0 47 103l8 6l-8 41l16 47v39l-16 22v31h16l-8 8v8q37 188 72 189h14l16 -17q0 -20 39 -22l9 -8h8l69 61q41 -10 72 -61l100 -8l25 8l39 -8l69 8l39 -8l48 16l24 -8q14 14 86 14q0 27 78 39l8 -6h8l56 14q74 0 108 -78v-30q0 -31 -164 -72 q-49 -20 -86 -53l-174 -17l-22 9l-25 -9l-22 9l-39 -17l-125 17q0 -18 -64 -23l-94 31q-27 -2 -61 -72v-14l8 -47l-8 -39l30 -33l133 33v-8l9 8h30l39 -8l56 8l30 -8l25 8v-8l6 8h55q207 -66 252 -142q76 0 94 -196q-37 -193 -94 -244q-35 0 -110 -125q-111 -111 -164 -117 q-59 -59 -172 -77q0 -14 -64 -25q-51 6 -133 72q8 211 64 211q0 45 94 69q23 -31 22 -61l-14 -25q12 -41 39 -61h86q164 68 219 186q39 0 55 133l15 31q-70 150 -94 150l-117 63l-8 -8h-17v8q-254 0 -358 -111q-20 0 -39 -55l-41 -22q-125 14 -125 61z" />
<glyph unicode="6" horiz-adv-x="923" d="M0 270l6 45l-6 220l6 28l-6 8v7l6 22l-6 82l29 72l-6 28q18 4 51 125q14 0 37 88q25 0 51 80q20 8 57 80q22 0 80 105q43 55 96 79q18 80 140 80q37 -12 36 -37l-16 -43l8 -20q0 -47 -125 -105l-71 -51l-60 -108q-63 -12 -117 -156q-35 -143 -59 -188l8 -9v-8l-22 -51 v-14l8 -51q55 0 139 96q55 43 123 43q0 12 74 31l14 14l74 -14l51 14q182 -63 182 -133q16 0 17 -86l-105 -148l8 -8v-14l-94 -109h21v-22l-74 -60q0 -20 -43 -57q0 -35 -139 -59q0 -51 -94 -52q0 -14 -52 -14q0 25 -110 59q-41 39 -51 103l-7 6q-31 20 -30 65l-6 9z M242 418q23 0 22 -74l-8 -6q74 -29 74 -45q-59 -29 -60 -74l29 23h23l8 -9q61 23 196 125q82 23 82 125l29 29v31l-23 28l-6 -8h-8l-65 23h-46q-41 -31 -102 -37q-137 -61 -137 -88z" />
<glyph unicode="7" d="M0 1034l31 37v31l-8 6v8q25 39 155 51h15l81 -6l45 15l31 -9l328 74q244 113 274 113q0 -14 37 -15l53 -135l-16 -57l8 -8v-9q-12 -29 -22 -28l8 -8v-9l-31 -28q0 -31 -14 -31l6 -6v-8q-29 -20 -51 -105q-10 0 -51 -65l6 -8v-17l-6 -37l6 -6h8l246 43q37 -18 37 -57 q0 -45 -74 -82h-37q-8 -51 -158 -68q-39 -18 -104 -90q-106 0 -133 -82l28 -155q-74 -80 -73 -113l-150 -170q-31 0 -88 51q0 27 -37 53q0 35 -14 52v37q82 57 139 163q61 71 62 105v8l-25 6l-6 -6h-8l-6 6h-9q-61 -23 -90 -51h-6l-59 82q-59 31 -60 90q25 102 60 102 l102 17v-8l45 16l45 -8q178 25 178 102q0 43 31 62l51 110h8l-8 8v7l17 61l-17 20l17 23v8l-23 6l-37 -6l-8 6q0 -16 -156 -43l-75 6q-20 -20 -199 -51l-8 -8q-43 -18 -76 -51l-88 -31q-61 0 -127 90z" />
<glyph unicode="8" horiz-adv-x="1099" d="M0 330l8 8l-8 45q0 139 213 274l53 80q-70 158 -88 258l17 54l-9 53q12 0 35 133q74 68 189 125l24 -10q12 29 152 61q182 -6 194 -96q0 -35 64 -35q57 0 80 -223q-92 -203 -240 -266q-186 -133 -221 -195l43 -162l-8 -8v-8l34 -117l-8 -8l8 -53q-25 -231 -88 -232 l-10 -8q-215 53 -362 213q-72 68 -72 117zM221 319l90 -61h62v8l-8 144l8 43l-43 34h-11q-98 -70 -98 -168zM346 969l45 -144q156 45 293 224q0 18 -53 18l-53 16l-11 9v10l29 69h-10l-62 19q-178 -84 -178 -152l8 -8l-8 -45v-16z" />
<glyph unicode="9" horiz-adv-x="1003" d="M0 653v9q0 61 23 90v14l-9 45q72 129 82 201l189 127l223 121q164 0 164 -76q20 -14 45 -164q76 0 76 -141l-76 -381l8 -25q-25 -35 -45 -119l6 -8v-6l-51 -166l8 -6v-8l-45 -164l14 -14l-8 -9v-6l8 -30q-6 -25 -45 -54l8 -6v-14q-27 -45 -67 -45q-84 41 -119 96v59 q127 186 127 277l43 127l-6 8v6q31 98 37 195l-15 53q-59 -10 -157 -68q-33 -23 -60 -22l-59 6l-8 -6v-8l-6 8h-9q-25 0 -53 -23h-20q-41 0 -113 45q-70 82 -90 82zM178 735l39 -28h113q68 33 110 127l9 6v8l-9 22l23 9l22 -9l68 91v28q-35 33 -121 53l-6 7v8 q-129 0 -240 -203v-6z" />
<glyph unicode=":" horiz-adv-x="608" d="M147 293v8q23 72 50 72l77 63q41 0 41 -14l39 6q88 0 88 -86v-16l-16 -25v-63q0 -45 -80 -127q-182 0 -182 79zM164 979q94 199 231 199h17q39 -18 39 -144v-41q-12 -158 -72 -157q-46 0 -105 -25q-70 0 -69 102z" />
<glyph unicode=";" horiz-adv-x="567" d="M80 -176l20 80l-14 57v12l53 105l6 18l-6 8v7q51 106 111 182q10 78 78 78q84 -27 84 -92v-13q-23 -51 -72 -92l-57 -108q-10 0 -39 -138l12 -65q0 -59 -78 -90l-8 6h-4l-35 -12q-51 0 -51 57zM223 813v6q0 57 45 78q0 20 15 21h30q2 25 27 24q94 0 164 -201 q-12 0 -21 -45l-32 -8l-138 27q0 12 -51 39q0 26 -39 59z" />
<glyph unicode="&#x37e;" horiz-adv-x="567" d="M80 -176l20 80l-14 57v12l53 105l6 18l-6 8v7q51 106 111 182q10 78 78 78q84 -27 84 -92v-13q-23 -51 -72 -92l-57 -108q-10 0 -39 -138l12 -65q0 -59 -78 -90l-8 6h-4l-35 -12q-51 0 -51 57zM223 813v6q0 57 45 78q0 20 15 21h30q2 25 27 24q94 0 164 -201 q-12 0 -21 -45l-32 -8l-138 27q0 12 -51 39q0 26 -39 59z" />
<glyph unicode="&#x3c;" horiz-adv-x="1193" d="M145 479q0 86 115 115q82 51 170 147q18 0 115 115q94 70 94 111q23 0 72 55q98 37 98 96q74 61 115 62l32 6q33 -35 33 -62q-23 -12 -22 -32l6 -50q-16 -18 -76 -43l-88 -77l4 -4v-7q0 -10 -39 -20l-4 4q0 -16 -88 -66q-55 -55 -55 -71l-135 -109q-78 -43 -78 -88 q0 -16 78 -33q0 -12 63 -20l160 -94q109 -82 147 -88q0 -20 29 -27l27 -78v-4q-55 -78 -99 -78q-37 33 -131 49q-4 12 -88 56q-72 78 -160 88q-18 0 -49 39q-39 20 -96 32l-29 17q-43 0 -121 59z" />
<glyph unicode="=" horiz-adv-x="1406" d="M51 831q0 111 90 111q18 29 70 49q39 -29 61 -28l105 8l110 -21q0 12 105 27q16 -14 90 -21l207 41q0 12 90 35q53 0 102 -76l-34 -157l8 -23q-14 0 -35 -49q-27 0 -55 -53h-9l-108 67l-70 9l-35 -15l-139 15l-6 -9h-6l-8 9h-6q-84 -6 -84 -23q-117 6 -117 23l-227 -23 q-38 6 -99 104zM115 467v6q43 80 186 125v-8l6 8h8q121 -70 248 -70l29 7l35 -7l18 7l57 -15q86 0 166 29l6 -6h7l28 6l35 -14q98 0 137 28h70l6 -8l8 8h6q70 -33 76 -55v-8l-6 -47q14 -2 27 -35q-23 -63 -103 -64l-20 -26h-15l-14 14l-166 -14h-145l-27 6l-55 -12v6 q-70 -18 -70 -29l-35 8l-90 -8l-116 8h-35l-41 6q-35 -20 -78 -20l-33 35l-8 -6h-20q-20 8 -76 137z" />
<glyph unicode="&#x3e;" horiz-adv-x="1392" d="M66 1194l20 12l-6 33q10 39 115 137q92 0 149 -129q41 -37 164 -88q0 -16 59 -35l15 -14l8 8h6l88 -20l35 8q0 -27 115 -49h47l32 -27q129 12 129 35q109 -23 109 -111l8 -26q-25 0 -55 -129l-53 -74l-35 6h-12q-41 0 -144 -102q-20 0 -35 -33q-20 0 -100 -94l-6 -8h-8 l-6 8h-9q-51 -23 -114 -103q-55 -18 -56 -26v-29q0 -20 23 -47v-35q-238 -188 -307 -188l-88 129q0 61 102 147l6 23l8 -8h13q55 22 55 67l68 70q25 0 184 168q23 0 141 108q14 0 14 35h7q0 43 -191 88q-102 43 -170 53q-47 43 -211 117q0 12 -47 12l-53 56l6 6v20z" />
<glyph unicode="?" horiz-adv-x="1290" d="M287 1139l6 6v6l-6 23q0 72 84 124q94 0 176 64q289 141 330 141l223 35l35 -14l8 8q135 0 188 -199l15 -125q0 -123 -119 -280l-84 -113q-126 -147 -191 -147l-6 -29l6 -6q-29 0 -168 -133q-29 0 -57 -29q-15 0 -55 -55l-56 -8q-29 29 -28 57v35l217 202q39 20 219 238 q90 104 90 133q41 31 90 170v29q-27 70 -110 69q-242 -25 -535 -211q-23 0 -127 -83l-61 -9q-84 56 -84 101zM741 113v49l9 8l-9 6q20 150 58 156h55q33 0 72 -211l12 -35v-37q-31 -49 -70 -49q-127 60 -127 113z" />
<glyph unicode="@" horiz-adv-x="1947" d="M0 440l16 49l-8 25l33 150l-8 41q20 0 33 65l-9 25q80 217 199 335q287 274 410 314q0 41 278 164q100 10 270 57h93l41 33q188 -66 254 -74q0 -23 57 -65q82 -102 82 -164q57 -90 57 -115l-16 -68l16 -16l-8 -8l8 -41v-17l-8 -8l16 -49v-8q-33 -33 -32 -66l8 -81 q-23 0 -66 -197q-125 -227 -164 -262q0 -68 -41 -68q-51 -59 -65 -106q-61 -15 -98 -49q-78 0 -134 49l-22 -9q-76 86 -76 140q0 23 -49 57v8h-25l-32 -49q-37 0 -66 -41l-172 -123q-20 0 -57 -49l-74 -24h-8l-8 8l-9 -8h-8q-166 25 -166 90q-10 0 -22 73l14 27l-8 6v8 q68 106 76 156q33 0 33 59l90 115q178 203 336 279q25 27 90 49l32 49l9 -8h8l98 16q0 -10 90 -57l41 -58l-6 -65q39 -16 41 -33l-8 -8l33 -49v-33l-19 -25l27 -41v-49l-8 -32l8 -41h14q133 162 133 213q25 18 74 196v107l-25 41l25 82q-16 0 -16 59q-84 94 -156 123l-8 -8 l-99 14h-73l-109 -33l-24 10q-137 0 -476 -147q-61 -72 -196 -125q-217 -223 -232 -328q-41 -63 -41 -131h-8l8 -10v-6q-25 -34 -24 -98l16 -27l-8 -41v-65l-8 -9l8 -8l-8 -65q0 -80 24 -115l-8 -66q18 -104 90 -188q0 -14 41 -25q0 -47 68 -65q16 -49 131 -90l6 -8l10 -33 l9 -8h8q33 6 32 73q33 33 66 33l8 -8q61 20 74 49l74 -16l286 49l9 -8h8l24 8v-8q43 25 101 24l8 -8l-8 -41l14 -25v-8q0 -41 -82 -41q-2 -18 -74 -41l-32 9q0 -80 -148 -107q0 -20 -164 -74l-32 9l-181 -33q-169 0 -270 123q-29 0 -59 65q-115 86 -115 131l-41 139l8 33 l-24 41v25l24 139q-16 0 -41 131zM731 541l33 -27l8 8h16l9 -8h8q25 29 90 59l49 91q37 74 74 73v17l-17 16h-8q0 -39 -106 -57q0 -29 -58 -41q0 -14 -90 -99z" />
<glyph unicode="A" horiz-adv-x="1165" d="M0 190v11q27 90 55 90q23 0 35 92q-45 72 -45 127q41 119 127 119v-11q37 0 74 130q47 25 137 391l8 8l-8 8v10q45 141 45 246l-8 27l90 55q53 0 238 -172q72 -94 161 -301q51 -59 66 -156l45 -45l-8 -8v-37l98 -475l55 -190q-23 -59 -63 -82h-37q-45 0 -109 338 q-74 187 -92 301q-39 0 -137 -111l-127 -135q-70 -20 -145 -66q-154 0 -191 -108l45 -137q0 -76 -82 -109h-18q-182 25 -182 156zM420 666q0 -20 26 -21q88 0 199 74h66q16 0 16 -45q29 0 29 -19q68 18 92 64q-129 383 -293 475l-27 -29l19 -37q-6 -135 -55 -208h-11l11 -11 v-8q-18 -18 -19 -74l-37 -90l-16 -18v-53zM1047 827v11l36 36h9v-10q-2 -17 -45 -37z" />
<glyph unicode="B" horiz-adv-x="1323" d="M-139 1303q55 143 121 143q37 -28 141 -43l6 -8l186 28l29 -8l43 8v-8l6 8h72l29 7l57 -15l35 8l43 -14h8l98 6q35 -20 78 -20q15 -22 80 -43q70 -94 70 -156q0 -100 -113 -207l-123 -86l-98 -63q-29 -4 -29 -29h6l23 6l35 -6l43 6l51 -20l41 8v-8l8 8h6l8 -8h6l23 8 q299 -59 299 -123q63 -39 63 -162q-111 -246 -264 -307q-141 -27 -233 -98l-94 -29h-7l-8 6q-106 -51 -184 -72l-127 -20l-100 78l-35 49l43 80l-17 141l17 14l-17 72l9 6v9l-9 77l17 86q-35 16 -37 27l20 80l-14 72l8 6v8l-8 20l14 29l-6 37h6q0 57 -41 147l-22 95v49 q0 16 -57 35q-76 -35 -119 -35h-8q-63 20 -64 43zM324 285q0 -43 77 -86h21l149 37l164 63l6 6l115 51q135 106 135 185l8 8q-55 63 -143 63q0 10 -141 27h-15l-36 -6v6l-7 -6h-8l-213 6l-43 16h-28q-27 0 -27 -80h-8l8 -6v-28l-14 -21l14 -86l-8 -8v-6l8 -29l-14 -14 l14 -58zM324 1090l14 -37l-8 -21l43 -43v-14q-23 -27 -23 -49l23 -15h14l84 21q0 18 80 37q0 12 164 121q0 23 35 57q-61 51 -107 55l-6 23h-43l-23 12h-6l-129 8q-82 0 -112 -57l14 -55z" />
<glyph unicode="C" horiz-adv-x="905" d="M0 682q0 109 104 342q0 78 80 131q123 117 158 193q33 0 227 88l97 -27l8 8h35q102 -51 168 -147q0 -150 -70 -219q-100 0 -150 69l-122 54q-70 -20 -193 -115q-88 -109 -131 -340l8 -10v-9l-8 -165v-19q33 -47 51 -158l43 -59l98 -63l113 45h37l43 -11q0 29 70 29 q8 18 227 139l27 27l8 -10l45 26q23 0 35 -88q-84 -59 -142 -166q-70 -33 -112 -123q-41 0 -201 -104h-176q-193 63 -193 131q-61 66 -61 88q-96 78 -96 201l8 8v10l-27 70v8l10 8z" />
<glyph unicode="D" horiz-adv-x="1333" d="M-229 1360q0 74 131 113l47 -11l39 11l37 -11l10 11h8l39 -11l8 11l47 -11h76l180 -28l8 10h11q434 -133 612 -350l115 -179l65 -227q0 -252 -434 -510q-51 0 -199 -84q-106 0 -206 -94h-19q-129 47 -151 94v10q0 102 159 121q57 20 58 39l-11 123l11 39l-11 37h11 l-66 123l-76 282q0 76 -39 160l11 10v9q-8 72 -66 170l-86 10h-8l-141 -47h-21q-149 135 -149 180zM383 1190q0 -115 76 -387q104 -481 133 -481q109 25 340 217q66 96 65 131v18h-10l10 47v47q-23 131 -151 209q-39 0 -264 160l-160 47z" />
<glyph unicode="E" horiz-adv-x="1011" d="M0 815l14 47v62l-6 30q6 78 23 78q-12 84 -23 84l6 55v29l-14 64v8q0 35 39 59q0 86 61 139h39q61 -40 62 -122l14 -17q178 20 309 64l115 30l23 -8q0 23 139 45q0 -16 86 -59l14 -55q-20 -76 -61 -76l-363 -117q-188 -53 -246 -53v8q-55 -12 -55 -92l8 -25l-22 -106 l22 -33h92l123 16h47q35 27 179 84h14l31 -8l69 33l47 -16l62 30l14 17l25 -25l-25 -22l8 -39q-27 -57 -131 -115q-63 -88 -323 -154l-185 -47h-69q-16 0 -17 -22q0 -55 17 -56l-8 -36v-86q55 -168 131 -168l55 6v-6q135 39 276 184l76 84q0 33 117 139q18 61 53 84l17 31 l36 -6h9q0 23 47 53h22l17 -16q0 -172 -140 -316q-18 -92 -192 -293q-66 -88 -254 -176l-53 -8q-279 0 -340 399v9l8 8l-25 100l9 70l-9 47l9 6v8q-15 18 -23 168z" />
<glyph unicode="F" horiz-adv-x="985" d="M0 1272q49 86 96 137l-8 6v6l55 29h21q96 -90 117 -90l61 -6l68 12l8 -6h6l55 14l41 -14l252 55q109 47 152 47q12 -12 73 -12l15 -41v-20q-82 -82 -129 -82q-135 -76 -178 -76l-50 -6l-18 6q-72 -41 -96 -41l-21 6l-49 -20l-61 8h-7q0 -16 -131 -23q-12 -31 -12 -88 l6 -26l-6 -35v-6l21 -76l41 -33l67 18l29 -14l41 14v-6l73 21l50 -6l26 6l41 -15q41 16 41 27q137 -25 137 -33q27 -27 27 -67l-102 -41l-21 -8l-41 8q0 -23 -47 -23q-51 -23 -172 -47q-23 -23 -217 -102v-6l6 -35l-6 -27l12 -117l-6 -20l12 -47l-6 -8q14 0 15 -21l-9 -117 q0 -74 82 -73l15 -21q0 -41 -82 -102q0 -18 -68 -35h-29q-53 68 -53 178l-20 41q18 76 26 76l-6 33l6 20l-6 41l13 70l-13 33q3 55 13 55l-7 8v6l7 6l-7 6v76l-61 88q0 66 47 178l-6 56l6 67q-12 0 -12 64q-10 20 -82 74z" />
<glyph unicode="G" horiz-adv-x="1048" d="M0 487l8 50l-8 88l16 168l-8 8v8l88 262q37 0 56 74q49 22 49 80l30 14l-8 8v8q117 145 242 265q0 18 88 32q39 0 80 -57q33 0 47 -102v-9q0 -72 -143 -104q-246 -244 -306 -487q-29 -66 -38 -177l22 -129l-6 -8q0 -82 94 -182q57 -12 57 -25q144 86 185 185l8 39 q-23 152 -74 151q-88 61 -88 184q31 80 105 80h8v-8l8 8h8l223 -168q176 -199 177 -344q16 0 16 -102l-8 -25q49 -72 49 -137q0 -127 -105 -127l-41 -8q-43 33 -88 121l-38 22l16 170l-8 23h-8q-86 -72 -130 -160q-123 -143 -215 -143q-63 0 -129 47q-176 205 -176 248 q-27 159 -55 159z" />
<glyph unicode="H" horiz-adv-x="1120" d="M0 623q49 160 152 159l38 31l-8 8v8l8 7l-8 8v8l23 37q-31 66 -31 131h8l-22 104l8 9v8l-8 45v14l8 8l-16 45q0 180 92 238h30q70 0 82 -100l-6 -29l6 -33h-6l6 -20l-6 -25l6 -37l-6 -69l6 -7v-8l-14 -30l39 -68l-16 -45v-70l8 -45l-17 -76l9 -8h47l14 15l39 -7h14 q174 18 174 37q0 16 25 17l6 6v31l-6 30l6 31l-14 143l8 31l-8 23l8 8v8l-25 84l25 22l-8 62q43 82 104 82q109 0 109 -152l14 -39q-14 -96 -39 -120l16 -205l-16 -70q23 -33 47 -219h-8l8 -8v-99l-8 -8l14 -37q-14 0 -14 -22l8 -62l-8 -47l8 -59l-8 -23l84 -55l-8 -90v-23 l-99 -106h-8q-37 0 -121 84l9 39v6l-25 31l25 45l-17 22q6 53 17 54l-25 61q16 33 16 84v6l-38 39v8l22 23l-6 39l6 6v8l-31 39l9 29l-9 22h-20q0 -29 -131 -29q-205 -57 -205 -122l-23 -160v-31l-8 -6l8 -23l-8 -30q23 -43 31 -138q0 -18 -115 -98h-14l-8 6l-6 -6h-17 q-59 45 -59 90l-25 25q0 37 39 96l-14 17l51 120v17l-6 8v6l6 8h8q0 106 -30 107q-105 0 -152 121z" />
<glyph unicode="I" horiz-adv-x="843" d="M0 92q0 33 12 33l-6 33v32l53 48q0 23 119 65q39 0 39 98l6 7l-6 41l14 59l-8 24l8 9v6l-14 92q14 0 27 59l-13 13v20q31 43 31 72v8l-12 18v7l20 73q25 0 33 125l-12 53v19h-29q-119 16 -176 59l6 6v21l-33 45v8q0 88 78 125l15 12h14q43 0 110 -32l48 14l6 -21h32 q16 -14 66 -20l45 6l41 -12h12l199 20l51 -14l60 14q47 -16 47 -47q-15 -58 -80 -86q-15 -25 -92 -24q-35 -35 -217 -68l-45 -119l6 -6v-6l-33 -84v-8l6 -39l-27 -92l7 -6l-7 -33v-86q-27 -20 -26 -160l8 -84l-14 -47q37 -47 145 -66q0 -23 145 -32l66 -92q0 -66 -131 -66 l-125 -45l-113 12l-59 -26l-35 6l-125 -33q-114 61 -137 92z" />
<glyph unicode="J" horiz-adv-x="911" d="M6 43q20 229 141 229q0 31 46 56l10 -11l-64 -178l8 -8l-8 -45v-8q43 -98 125 -98l98 -43l27 8l107 -8q133 57 133 167l10 9q0 131 -90 436q0 98 -98 311q0 51 -107 232q-34 141 -98 178l-8 10v6q0 76 98 125h61q88 -43 88 -141q45 -27 45 -72l-8 -45l27 -70l-8 -26 q104 -283 186 -660q14 0 35 -106v-62l-8 -10l34 -151l-34 -177h-11l11 -10v-8q-29 -197 -170 -197q-385 82 -506 261q-47 34 -72 106z" />
<glyph unicode="K" horiz-adv-x="1271" d="M0 1206v8l6 7l-6 8q0 115 94 141h8q68 -49 68 -74l-14 -28q12 0 20 -39l-12 -55v-68l-14 -41l20 -109l-6 -34l12 -74l-12 -62l18 -6q96 80 244 238q41 0 61 53q59 53 123 150q29 0 115 82q100 35 293 196h12q49 0 96 -82q31 -14 33 -26l-41 -82q-31 -37 -162 -68 q0 -12 -231 -197q-47 -94 -109 -108l-6 -35v-41q47 -33 47 -100q29 -23 62 -135l35 -41l-9 -35l62 -94l-6 -6v-9q55 -147 182 -237l-6 -33l27 -35q-3 -74 -68 -129h-82l-47 -6l-82 109l8 20q-27 14 -90 203l-94 170l6 20l-53 21l8 35q-29 115 -96 114q-102 -102 -238 -211 l-6 -6v-6l6 -76l-6 -47l6 -6v-8l-12 -27q18 -57 100 -141l-20 -23l8 -18q-78 -109 -129 -109q-96 4 -96 68l20 121l-6 8v6l12 27l-18 96l6 18l-6 68l6 8v6l-21 129l7 41v41l-21 74l8 41v6l-8 29l21 53l-13 41l6 41v6l-14 76v20l14 54l-14 34l14 48z" />
<glyph unicode="L" horiz-adv-x="843" d="M0 1393q14 106 76 106v-6l8 6h14l117 -106l16 -84l-32 -131l8 -9l-8 -59v-74l-17 -16l8 -92q-6 -141 -16 -142l25 -155l-9 -76v-149l-8 -33q10 -66 25 -66h8q31 0 234 142q57 0 206 65l25 -8l25 16l49 -8l92 8l16 -24v-41q-76 -76 -108 -150l-183 -125 q-111 -63 -272 -125q-94 -57 -125 -57h-33q-106 94 -125 150q0 111 33 174l-16 106h8l-8 8v43l8 82l-8 49l16 52v8l-24 157h8l-8 9v16l8 33l-8 8l8 41v68l-8 40h8l-17 50v8l9 33l-9 10v6l9 100z" />
<glyph unicode="M" horiz-adv-x="1386" d="M0 1335v19q57 106 125 106l8 -10h10l35 10q66 0 90 -117q47 -57 125 -385l144 -358l10 -8h8q71 0 178 313q104 84 154 223l-27 91q6 125 88 124q100 -23 101 -34q92 -211 125 -656v-8l-11 -8l37 -279l-8 -36q0 -137 80 -205v-19q-53 -72 -117 -71h-35q-143 104 -143 206 v46l27 88l-19 180h8l-16 45l8 35l-27 151h9q-12 37 -27 37h-8q-27 0 -144 -223q-96 -119 -188 -287l-27 -8q-14 12 -124 25q-47 0 -127 360q-23 0 -35 61h-8l-11 -45l19 -71l-19 -160v-82l-8 -8l8 -10v-99q37 -37 37 -71q-35 -178 -63 -179l-35 -18h-64q-55 0 -125 106v37 l35 269v108l19 98v250l18 80l-8 10v9l8 10v8l-18 82v27l26 114z" />
<glyph unicode="N" horiz-adv-x="1208" d="M0 1364q10 41 39 61v7h45v16h53v-16h15v16h38l297 -459q82 -80 238 -356l-8 -25q59 -57 59 -90h33v23q0 37 29 67l-9 8v48q2 37 17 36l-8 39v15l16 47l-25 84l9 37l-9 39q8 76 25 75l-16 37l22 62l-22 75l8 47l-17 46v16q14 143 70 143q23 0 23 17h100q0 -25 22 -25 l15 -29l-8 -22l8 -39l-15 -45q12 -31 23 -31q-84 -180 -84 -305q14 -29 14 -84v-14l-8 -70q18 -31 25 -190l-17 -115l17 -31l-17 -45l9 -8l-9 -37v-47l9 -31q-10 -80 -68 -182l-8 -6h-62v-17h-30q0 16 -29 17q-57 35 -109 227q-45 12 -137 244q-66 70 -106 154 q-47 27 -76 106q-61 104 -107 143q-29 66 -75 84h-9v-75l-8 -9q41 -160 70 -381l-8 -8l8 -37v-61l31 -61l-17 -29q16 -33 17 -84l-9 -25q20 -20 31 -151l-8 -8v-7l8 -30q-37 -115 -61 -115h-45q-109 47 -109 168l-6 31l6 37v47q0 37 -14 36l8 39v68q0 46 -31 129l17 33 l-9 104v39l9 8q-27 146 -70 625z" />
<glyph unicode="O" horiz-adv-x="1136" d="M0 711v274l43 141q39 27 63 107l115 117q156 115 187 114l61 -10l45 10q18 -33 107 -53l213 -205q223 -201 223 -282l35 -27l-11 -27l29 -18l-10 -195v-36l-62 -232q-12 0 -71 -133q-203 -248 -336 -248l-10 10l-19 -18q0 18 -24 18l-37 -10l-27 10l-8 -10h-8l-160 64 l-45 61l8 8v11l-125 133q-55 174 -104 194zM141 745l19 -71v-62q27 -23 71 -186q18 -6 115 -141q43 -39 213 -64q199 82 240 187q66 59 133 258l-8 8v45q0 16 24 16q-92 268 -141 269h-8q0 -55 -27 -56h-27q-111 16 -194 125q-27 0 -45 125l-27 27h-71q-92 0 -213 -205 l-43 -133l8 -53l-19 -70v-19zM815 221q39 20 125 162q0 31 53 96v53q-16 0 -16 -26l-37 -62q-14 0 -53 -116q-72 -31 -72 -107z" />
<glyph unicode="P" horiz-adv-x="1173" d="M-111 1382q12 0 35 74l49 60l115 -19l59 10l23 -10l141 19l316 -41l8 8h8q90 -20 90 -51h51q135 0 240 -191q18 0 25 -98q0 -63 -58 -142q-20 -4 -84 -100q-33 0 -73 -41q-25 0 -158 -90q-281 -80 -281 -98l-41 -60l8 -8v-8l-18 -25l10 -8v-8l-10 -125l10 -8v-8l-10 -33 q0 -141 76 -223l-8 -92v-25q-18 0 -50 -33l-24 -8q-20 0 -100 109v22l16 27l-8 73l8 9v8l-16 51l24 147l-16 93l16 65v58l-8 10q-57 25 -57 41v65l16 17l-8 8v24l57 74v84l-16 25v32l8 33l-16 51l16 50v65l-8 41h-17l-41 -6l-32 6q-63 -2 -101 -33l-32 8l-41 -22 q-93 36 -93 147zM379 1151q4 -84 16 -84l-8 -41l8 -74l-8 -41l8 -10h99l92 35q49 0 106 33l27 -8v8q147 139 147 174q0 53 -123 125l-43 -19q-18 0 -82 41l-49 -8q-33 27 -92 27q-72 0 -98 -150v-8zM537 1341h16v9h-16v-9z" />
<glyph unicode="Q" horiz-adv-x="1323" d="M0 649q8 45 20 45l-8 8v7l8 32l-8 54l21 18v14l-6 27l26 51l-8 41q47 41 47 78q63 78 146 217l145 139q188 106 235 107h48q68 0 104 -113q16 0 35 -86l117 -47q92 -82 92 -125q53 -53 98 -217v-45l-4 -27l12 -32l-12 -33l4 -6v-8l-25 -105q-18 0 -26 -86 q-16 -41 -139 -184q0 -27 -66 -92v-27q0 -33 53 -74q0 -47 66 -96q0 -12 80 -86q0 -35 45 -74q0 -137 -125 -137l-6 -6h-6q-94 0 -125 65l6 7q-43 106 -92 170q-22 86 -74 86h-6q-141 -98 -191 -99l-41 13q0 -18 -12 -19h-6l-21 12h-6l-20 -12q-59 0 -60 33l-6 -6h-6 q-18 20 -65 32q0 12 -48 66q0 29 -53 72v20l8 6q-23 74 -100 131l14 62q-18 0 -32 182q-27 12 -27 47zM104 676q0 -164 119 -369q33 0 33 -14l-6 -6v-6q0 -39 47 -39q0 -20 51 -47l8 6h6l87 -13q96 27 157 99v26l-33 45l7 33q-14 0 -27 86q18 119 92 119l33 6 q92 -86 92 -164h6q113 113 113 164q59 41 59 113q14 4 27 92h6l-12 98l6 8v7q0 18 -98 124q-106 23 -107 33l-33 -6l-18 6q-121 -29 -139 -65l6 -33l-6 -33l6 -26q-20 -20 -60 -27q-33 0 -53 33q0 23 29 65v47l-8 33q59 111 133 197h-9q-131 -18 -178 -66q-39 -23 -98 -98 q-111 -72 -111 -125l-61 -92q-8 0 -51 -125l6 -6v-8z" />
<glyph unicode="R" horiz-adv-x="1378" d="M-70 1155l15 90l-6 31q55 55 55 96l92 51h6l35 -8q47 35 197 35v-6l8 6l162 -20l28 8l64 -8h55q12 -14 107 -21q51 -8 112 -37l6 8h8q217 -70 218 -135q43 0 92 -182v-84q-31 -25 -49 -98q-45 -16 -127 -113q-23 0 -23 -23l-246 -133l-6 -6q0 -14 -35 -14l-8 -6v-23 q16 0 72 -63q31 0 104 -56q190 -109 191 -120l8 8h20q61 -23 91 -78q35 0 77 -72l-14 -26l43 -78l-98 -78h-15q-121 18 -190 98l-90 78l-184 113l-29 14h-35q0 41 -190 84l-91 6q-35 -12 -36 -26l8 -64l-8 -20q15 -135 43 -136l-15 -41q35 -6 35 -57v-6q-18 -43 -98 -43h-29 q-49 25 -84 156q-29 25 -29 41l15 28l-6 6l6 37v21q-20 23 -21 49v14q29 33 29 56v8q0 40 -43 92l14 35q-6 119 -20 119l6 28l-6 35q6 49 20 49l-14 72h6q-35 170 -47 176q-147 23 -147 133h-9zM268 1169q0 -31 35 -69l-6 -37l12 -78l-6 -41l29 -57l-15 -99q20 -70 84 -69 l23 12l47 -6h29q66 0 147 57q31 0 191 113q49 0 106 84l6 43l-6 27l6 28q0 78 -344 119h-8l-41 -6l-127 20q-156 0 -156 -41h-6z" />
<glyph unicode="S" horiz-adv-x="860" d="M0 987q0 260 145 297q111 55 127 102q76 0 154 52l119 26q229 -74 229 -137l27 -162q-12 -51 -43 -51q-76 0 -111 70l-67 24h-27l-84 -24l-8 8h-10q-111 -39 -203 -102q-43 0 -51 -76l-11 -27q55 -96 103 -143q80 -25 229 -129q197 -145 197 -238v-102l16 -70v-41l-8 -8 l8 -8v-19q-135 -229 -356 -229l-35 8l-8 -8h-8l-86 35l-41 -8q-111 18 -111 41l8 59l-16 18q0 72 119 84l84 -16q188 0 256 143v54q0 82 -308 229q-6 25 -102 68q-98 145 -127 280z" />
<glyph unicode="T" horiz-adv-x="1083" d="M-90 1290v17q20 111 100 110l154 -59q27 -14 201 -25l178 17v-9q256 53 389 136l65 16h19l57 -92v-35q-16 -43 -76 -43q0 -49 -227 -133q-10 -18 -152 -60q0 -45 -43 -126v-17h11l-11 -127v-100l-8 -51l8 -33l-8 -43l27 -127l-19 -92q0 -111 43 -111q51 -18 52 -84h-8 l8 -8v-8l-8 -43l8 -49q-16 0 -35 -68q-29 0 -60 -43q-90 0 -159 119l10 57l-10 27v16h10l-18 270l18 127l-27 152l9 43l-9 33l9 33l-9 10l17 168q0 31 -76 57l-41 -6h-86q-287 41 -287 108z" />
<glyph unicode="U" horiz-adv-x="1202" d="M0 430l16 68l-8 37l19 73l-19 123l8 66l-8 47l43 243l-8 29q0 84 104 168h11q76 0 145 -160q45 0 45 -37q-12 -37 -26 -36l8 -47q-63 -147 -113 -160v-189q25 -215 62 -215q115 -113 278 -112l35 -9h8l129 56q49 6 158 131l-8 39q43 18 43 84h8l-43 102l10 10h6l-43 158 l10 10v11l-53 120l8 37l-16 105l70 102l43 10h8q96 -37 96 -123q16 -88 43 -120v-84l43 -131l-8 -11l45 -207q16 0 16 -36l-16 -66l8 -29l-8 -84v-36q-41 -76 -166 -189q0 -16 -104 -47q-20 -37 -166 -76l-8 -8l-27 8q0 -14 -244 -55q-78 57 -182 66q-160 123 -236 253 l19 19z" />
<glyph unicode="V" horiz-adv-x="1062" d="M0 1229q31 88 59 94q57 0 76 -86q66 0 119 -162l221 -432q100 -156 143 -287l44 -34l67 213l8 8l17 24l-9 8v11l35 151l-10 8v9l35 75l-8 95l16 75q-6 51 -16 52l8 43v24q0 55 -51 178q0 20 67 76h43q119 -86 119 -151l59 -119l-8 -27l8 -33q-22 -25 -67 -24l-17 -60 l9 -77l-95 -500l9 -8v-8q-70 -195 -93 -322q-28 -43 -67 -43h-35q-111 16 -111 135q-14 57 -100 162l-43 119q-233 487 -270 499l-146 236z" />
<glyph unicode="W" horiz-adv-x="1323" d="M0 1358v18q31 84 102 84q23 0 84 -78l-6 -6v-18l27 -51l-8 -21q27 -29 47 -174l6 -6v-6l-6 -6q16 -94 45 -150v-18l-15 -19v-20l25 -58l-4 -6v-8l12 -76l-8 -18l8 -6h6l-6 -33q0 -23 45 -66v-6l-12 -24q25 -53 25 -84v-21h18l8 21l-8 30l21 21l-7 6v6q8 37 39 72l-8 25 q20 0 33 122v45q27 39 26 154v39q25 58 25 111h6l-6 30v78l6 6l-6 6v7q18 123 78 122l26 15q14 0 58 -72q57 -49 57 -186l-6 -39l18 -27l-6 -24l33 -105l-6 -57l39 -96l-6 -21q18 0 30 -55l-6 -8v-7l6 -24h-6q0 -20 39 -78v-12l-6 -33l27 -84l-9 -6q12 -39 27 -39 q0 12 27 33l10 30l-10 33l18 45l-8 21l14 37l-6 32q37 0 37 160l8 21h6l-6 32l39 154l-6 78q39 70 39 108v52l-8 65h8l-8 6v66q49 72 102 108q25 0 98 -135l7 -27q-78 -162 -78 -204l6 -27q-20 -39 -39 -147v-21l6 -37l-18 -39l6 -18l-6 -35l6 -31l-25 -39l6 -6v-6l-6 -57 l6 -39l-18 -66l4 -24q-14 0 -45 -246q-9 0 -18 -25l6 -20l-6 -39l6 -45l-25 -39v-45q-25 -109 -57 -108h-72q-90 0 -90 83q-27 14 -27 33q14 31 39 45l-12 27l6 4v6l-18 47v6l6 58q-66 94 -66 129l6 33q-10 0 -36 63l12 27l-12 12l6 18q0 31 -45 84l-6 39l6 6l-15 15l9 6 q-16 45 -33 49l-27 -55l6 -27l-6 -6h-6l6 -33l-39 -102q0 -47 -12 -60l6 -6v-6l-12 -78l6 -18q-31 0 -45 -103q-47 -72 -64 -206q-27 -45 -77 -45l-13 14l-39 -8q-25 0 -59 47l8 55q-12 14 -18 72q12 0 18 71l-33 84q0 41 -18 58l12 18l-6 21l6 39l-39 90l7 18q0 51 -46 156 l7 45q-12 14 -13 76l-18 18l12 14v7l-6 96q-31 0 -33 57l6 6v8l-30 58l6 6v6q0 33 -51 78z" />
<glyph unicode="X" horiz-adv-x="1304" d="M0 195q18 129 113 211q195 178 194 219q0 129 -55 227l6 6v8l-88 203q-41 41 -41 82l-25 33l9 39v82q0 39 153 63h8q35 0 50 -137q59 -74 98 -250l14 -16l-14 -25l63 -88l25 -8q84 59 123 137q35 0 184 178q18 0 66 55l-9 9v8q74 43 74 74q129 92 129 104q0 18 66 25 l33 -25q0 -39 63 -63l16 -41q0 -92 -129 -220q-82 -113 -170 -112q-268 -272 -323 -430l-17 -25q49 -260 129 -260q57 -51 58 -113q31 0 31 -49q-88 -96 -179 -96q-129 20 -129 66q-25 102 -63 153l6 74q0 33 -55 55q-51 0 -156 -186q-106 -88 -184 -88q-49 34 -49 80 q0 41 -25 41z" />
<glyph unicode="Y" horiz-adv-x="851" d="M0 1376q68 96 127 97q102 -102 102 -224h-6q2 -53 45 -108q0 -63 64 -133q27 -63 94 -121q0 -35 57 -66q94 29 103 58l-6 45q51 72 51 114l-6 6v7l51 102l-6 64q51 25 51 96q49 43 70 90h63l18 -14l-6 -25q2 -63 21 -64q0 -78 -72 -159q0 -25 -63 -160q0 -70 -52 -127 q-39 -59 -96 -217q-10 0 -10 -39q-102 -137 -102 -172q-37 -25 -70 -145l-27 -58l-6 -6v-45q0 -34 -129 -172q-82 0 -82 139q16 6 109 129q31 0 39 82q63 78 63 109q0 41 37 84l-4 18q25 9 24 43q-12 35 -120 90q-59 104 -97 115l7 33v18l-89 103l7 6v6q-45 20 -45 45l18 31 v8q-27 0 -51 37v39l8 6l-51 90l6 31l-14 38l8 7l-27 24v6l6 9z" />
<glyph unicode="Z" horiz-adv-x="1320" d="M0 152v20l43 102q43 0 80 109q47 16 108 123q74 0 115 237q109 74 131 74h15l28 -14q131 109 146 108l6 7q49 94 71 94q80 45 123 151h-6l-117 8h-57l-115 -28h-51l-28 6l-29 -6l-74 6l-29 -23l-71 17q0 -12 -43 -23q-129 0 -160 58l-6 8v57q0 14 20 14q0 31 37 86 q49 59 80 60l100 -37l29 14q0 -16 66 -20l22 6l43 -6h51l43 6l23 -6l49 20l66 -14q23 6 28 29l86 -6q51 6 95 43h43l8 -9l86 37l22 -8l66 14l71 -71l-8 -29l31 -43q0 -49 -37 -74q-29 -86 -88 -114q-115 -135 -186 -189q0 -25 -37 -63v-9l72 -43q72 -94 71 -122v-15 q0 -51 -100 -100h-6l-29 12l-43 -12l-23 6l-14 -14h-51q-283 -20 -283 -66l-143 -166q-37 -51 -37 -80l8 -8h6l9 8v9l57 -23q94 0 180 43q151 43 197 43q29 0 78 37l116 57l29 -6l100 58l72 8q131 -16 131 -88q0 -14 -49 -58q-125 -137 -299 -188q-63 -43 -223 -80l-66 -43 l-6 8q-238 -29 -237 -51l-74 14l-21 -8q-282 17 -311 146z" />
<glyph unicode="[" horiz-adv-x="909" d="M0 823q23 66 49 84l-6 8v7q0 12 113 57l34 -8l29 8l29 -8h6q84 4 84 78q-16 23 -105 28q-127 74 -127 197q57 170 70 176l-6 6v57q90 123 90 170q16 0 84 84q139 127 199 127l112 35q162 -51 162 -92q49 -51 49 -154q0 -55 -104 -63h-8l-15 43q-14 0 -20 70l-6 6h-8 l-27 -6l-23 34l-34 -8h-23v15h-41l-98 -76q-37 -37 -43 -78q-41 0 -78 -98q-45 0 -70 -213q92 -98 176 -99l7 9h8q119 -49 119 -142l8 -43q0 -100 -72 -135q-29 0 -29 -47h-6q43 -86 43 -115h-8l23 -55v-43q-51 -172 -52 -217q-16 -10 -49 -156q-10 0 -35 -135 q-35 -31 -34 -203v-34l-15 -44q16 -74 84 -126q0 -49 101 -50q66 0 168 -57h63l29 8l28 -8q141 59 211 107h15l20 -7q59 41 92 41h15q14 0 20 -69q-43 -12 -43 -58q-102 -92 -174 -133q0 -14 -164 -49l-6 6h-6l-31 -6l-26 6l-64 -12q-27 18 -106 35q-309 117 -310 188 l-43 86l15 49l-15 84v9q0 35 15 34l-7 35q0 41 35 176l-8 29q22 6 37 49l-8 64v6q6 70 63 205l6 106l-6 20l6 9l-14 12q-35 12 -35 43l-61 29l-8 6l-78 -15h-64q-92 28 -92 86z" />
<glyph unicode="\" horiz-adv-x="1077" d="M14 1489v33q0 111 80 110q96 -59 123 -137v-92q25 -94 45 -94q47 -150 98 -213q52 -154 80 -154q20 -94 45 -94q34 -111 142 -264l143 -246q59 -113 82 -113q9 -43 25 -43q129 -162 143 -162l-10 -108q-61 -39 -62 -59q0 -76 -114 -86l-46 34l9 25q-33 162 -72 162l10 32 q-88 240 -125 240q0 25 -82 170q-98 199 -186 299q0 37 -176 375z" />
<glyph unicode="]" horiz-adv-x="1155" d="M0 1710l14 107l-8 28v15q27 47 135 77h6q51 -39 121 -43l15 15h6l28 -15l76 9l219 -72l-8 -6v-23l72 -84l-6 -8l41 -104h-6l20 -41l-43 -127l8 -8v-7q-23 -23 -35 -106l-28 -29l8 -20l-14 -41l6 -8v-7l-6 -8v-6q0 -16 41 -43l77 21h21q121 -47 121 -105q-31 -41 -50 -133 q-113 -109 -120 -190q25 -135 57 -136l-8 -34v-21l14 -49l-6 -23h6l23 -20l-9 -21l29 -127q-33 -47 -57 -118l-105 -101q-125 -117 -346 -231l-35 -21h-6q-121 57 -147 58l-8 6v35q55 147 141 147h98q70 20 70 41l63 37q0 20 43 20q0 43 56 43l43 107l-23 70l17 41l-23 28 l6 35h-12v37l-57 147q0 27 -50 99v14q37 72 43 133q-68 45 -106 121q-37 0 -55 84l20 27l-6 28q16 4 55 78v14l-8 7v8q16 0 16 20l-8 21q35 23 35 51l-6 35q14 0 35 118q0 113 -84 113q0 29 -127 35l-43 -6v6l-6 -6h-29l-29 6l-90 -14l-8 8h-6l-35 -8z" />
<glyph unicode="^" horiz-adv-x="960" d="M0 1141q18 59 47 59q34 18 37 37q37 4 37 37q82 45 115 112l65 99l-6 16l53 43v35l55 43q117 0 181 -174q51 -35 108 -139q23 0 127 -115q12 0 41 -59l6 -7h6q-6 -61 -18 -61l6 -4v-6q0 -16 -106 -37q-49 74 -152 139q0 20 -47 47q0 22 -61 74q0 33 -35 59h-62 q-18 -68 -254 -241l-41 -25q-90 0 -90 49q-12 1 -12 19z" />
<glyph unicode="_" horiz-adv-x="1396" d="M0 -109q8 68 82 134l6 6l113 -15l57 23l39 -8l207 45l8 8h20l60 -16h6q39 31 127 36l8 9h51q100 0 162 45h17l28 -8q113 31 113 51l74 -6h36l29 6q27 -6 51 -60v-14q0 -12 -37 -23v-14l9 -37q0 -88 -82 -88l-23 -22h-28l-97 37h-22q-51 -2 -74 -23l-37 8h-59 q-170 -14 -170 -37l-37 6q-352 -43 -504 -102q-123 8 -133 43v16z" />
<glyph unicode="`" horiz-adv-x="681" d="M0 1640q47 84 102 84q14 -12 91 -18q29 -37 65 -37l6 6h6q223 -111 224 -184l28 -31l-6 -30q0 -23 31 -23l18 -25v-18q-18 0 -18 -18l6 -7l-37 -12q-117 49 -149 96l-162 84h-96q-109 74 -109 133z" />
<glyph unicode="a" horiz-adv-x="960" d="M0 199v71q33 51 72 176q25 0 24 66l8 6l23 33l-6 31q78 274 78 383l-9 24q33 12 33 25v55q72 424 144 424l49 6h14q41 -23 41 -72q20 0 127 -143l80 -207l55 -239l8 -9h9q143 31 159 58h31l16 -17l-16 -24v-72q-31 -45 -158 -143l-8 -58q23 -92 47 -460q12 0 17 -97 l-25 -16h-14q-57 0 -121 143q-16 53 -25 224h9l-23 41v55l14 24l-22 17h-8q-82 -31 -177 -129h-38q-51 0 -113 49h-8q-39 -76 -39 -113q-39 -72 -72 -215l-63 -33q-88 0 -88 58q-23 23 -25 78zM342 741l8 -55v-47q109 0 193 102q55 6 55 41q-33 162 -47 166l8 41l-41 72v8 l8 25l-8 8l-31 47l-8 8q-65 0 -80 -239q-22 -177 -57 -177z" />
<glyph unicode="b" horiz-adv-x="1431" d="M0 1325v23q0 12 100 79h66l108 29l166 6l21 -6l8 6l115 -20l8 8q268 -37 409 -94q18 0 95 -60q18 -2 57 -114v-6q0 -92 -49 -123q0 -27 -31 -58q-166 -138 -166 -159q117 -49 180 -50q0 -12 72 -36q12 -20 94 -43l72 -103l23 -100q0 -76 -86 -187l-181 -102 q0 -12 -143 -43q-2 -10 -160 -57l-57 -29h-14l-9 8l-440 -88l-6 -6h-21l-16 14l-35 -8q-37 0 -37 51q-33 0 -49 52q49 98 49 165l-6 35q14 0 15 23l-9 8v6l9 6l-9 94l9 95l-9 37l9 6v8l-29 166l20 49l-6 6v37l6 29l-6 8v8l6 63l-14 37l14 86l-20 58l6 8v6q0 47 -72 57z M289 403l14 -51l-8 -78q28 -34 123 -43q0 -29 43 -28h22l109 20l57 -8q0 16 64 23l346 151q61 86 80 86v37q-102 92 -158 92l-8 -6h-6l-88 14l-58 -8h-8l-106 31l-43 -14h-60l-26 6l-29 -6h-66l-22 14h-72l-57 35l-29 -72l6 -43l-14 -66l8 -28zM289 1225l43 -66l-15 -72 l15 -71q-14 0 -15 -43h-8l8 -6v-117h15l71 22l9 7l86 -7q72 0 106 35h8l29 -6l152 66q23 0 51 34q25 12 100 115v31q-6 31 -108 63l-7 9v6l-8 -6h-8q-182 63 -324 63h-6l-22 14h-15l-20 -14h-51q-29 0 -86 -29v-28z" />
<glyph unicode="c" horiz-adv-x="960" d="M0 719l16 67l-8 62q35 25 78 205q27 8 51 86q27 0 51 75q43 8 86 103l154 86h16q0 25 19 24h16l8 -8l129 35q76 -14 76 -35l8 8h19q104 -78 188 -247q0 -35 -35 -111l9 -35q-18 -86 -86 -86h-9q-119 0 -118 53l-19 41l10 35q-43 74 -43 103h-10q-246 0 -332 -179 q0 -29 -77 -172l-9 -102l9 -51l-9 -35l17 -25l-8 -61v-8q12 -92 67 -162q18 0 27 -59q172 -78 248 -78q176 70 180 86q47 47 135 78l43 -86q0 -102 -102 -172q-126 -154 -283 -154h-76l-43 27l-8 -11h-8q-45 0 -164 105l-49 33q-27 0 -27 34l-16 25l6 8q-84 168 -84 242 l-27 49v70l-8 51l8 43z" />
<glyph unicode="d" horiz-adv-x="1323" d="M0 1384v27l72 72h8l133 -27l43 8l141 -26h9l34 10l363 -82l8 10h8q272 -90 320 -184q92 -90 141 -397q-18 0 -18 -99l-88 -184q-256 -283 -371 -283q-82 -72 -291 -141h-18l-43 8q0 -82 -107 -96q-74 0 -96 115q-53 27 -64 61q0 53 72 107l16 104q-51 190 -51 389v142 l-18 53l10 8v8q-29 47 -29 88l11 45q0 80 -115 115q-53 129 -80 149zM379 1067l18 -43l-10 -45v-96q0 -74 29 -107l-10 -45l10 -43l-10 -45l26 -78l-8 -26q0 -176 61 -177l54 17v-8l8 8h8l27 -8q375 186 469 413q0 27 34 80q0 184 -122 211q-119 63 -336 88l-99 29l-8 -10 l-45 10h-24q-63 0 -64 -72l10 -26z" />
<glyph unicode="e" horiz-adv-x="1114" d="M0 758v43l106 151l11 45q-80 111 -80 160v80q20 41 80 82l43 -10h18q0 18 88 80h37q37 -53 98 -54l88 35l11 -8h8l221 80l125 37l10 -11l62 11h37l34 -37v-115q-14 -31 -268 -117q-90 -51 -354 -125q-51 0 -90 -194l106 -37l223 37l152 45v8l35 -8l125 35h53l18 -19v-8 q0 -104 -133 -151q-84 -33 -162 -91q-66 -25 -346 -79l-61 10q-45 -12 -45 -64v-26l8 -35l-8 -8v-11q35 -250 133 -249q229 90 436 329h27q98 -66 98 -125l-18 -43l18 -18v-8q-29 -84 -231 -250q-145 -115 -250 -125q-201 0 -311 258q-57 166 -80 391z" />
<glyph unicode="f" horiz-adv-x="1011" d="M0 1235l14 22l-6 54l76 92l123 6l47 -14h6l25 14h37q147 0 147 -23l6 9h45l62 8q88 -10 100 -23h78l14 -16l8 8h37l39 -8q0 16 84 31q22 -22 123 -31l45 -39q0 -96 -442 -160h-31l-8 9l-8 -9l-76 9h-33l-6 6q-98 -10 -115 -29h-69q-52 0 -62 -86l25 -45l-9 -25 q23 -6 23 -45v-53l23 -23l61 23l39 -8l39 8q84 -6 84 -23l76 7h22l8 -7l8 7l37 -7l56 7q229 -27 229 -54l8 -30q-70 -51 -170 -92q-61 -53 -160 -54l-77 -39l-15 17h-8q-61 -39 -145 -39h-8q-41 0 -54 31q-31 0 -45 -46l31 -77l-8 -23l39 -92l-17 -45l8 -47v-45 q14 -29 115 -76l8 -41v-6l-123 -123h-53q-86 25 -86 106l-6 9v8l6 76l-6 47l6 61l-28 121v70l6 8l-15 76l9 39q-46 117 -93 337l-16 46l16 77l-92 121z" />
<glyph unicode="g" horiz-adv-x="966" d="M0 449l8 38v66l8 8l-16 74q84 365 166 495q53 154 201 293q76 57 141 58h33q184 -137 184 -211v-17q-12 -115 -43 -114l-88 -17q-37 33 -43 123h-27q-51 0 -157 -90l8 -8v-17q-66 -37 -105 -147q-53 -92 -86 -235h-10l10 -9l-34 -227l8 -25l-8 -30q0 -43 43 -148h-9 q20 -51 43 -57h70l35 8l26 -8q89 0 166 49q139 82 140 148q-61 154 -166 153l-33 137q29 90 94 90q131 -33 131 -96l105 -172l45 8h8q27 -8 26 -49v-55q25 0 25 -16l-16 -107q29 -145 104 -145q20 -6 35 -43q-51 -154 -86 -154q-111 0 -203 154l-8 10q-193 -131 -244 -131 l-80 -25q-287 18 -286 90q-63 63 -88 252q-13 99 -27 99z" />
<glyph unicode="h" horiz-adv-x="1040" d="M0 745q14 76 78 76q76 18 76 31l-9 45l17 25v22l-8 31l16 53l-8 84v33l14 22l-6 37h6l-14 47l8 9v8l-8 6q0 131 114 153q84 -45 84 -92v-8l-8 -6v-8q14 0 33 -45l-25 -64l17 -14l-17 -45l17 -39q-25 0 -25 -92h-8l8 -8v-31q0 -25 -22 -53l22 -76l-8 -8v-9q12 -47 41 -47 q287 43 313 70l25 115l-16 47l8 22l-8 23l8 24l-33 160l125 92h45l78 -84l-8 -8v-6l30 -109l-22 -100l8 -76l-16 -92l39 -69l14 -17v-67q-61 -111 -62 -140l17 -59l-8 -55l8 -9h8l-8 -36v-56l-8 -8q23 -111 45 -129q-12 -201 -115 -201q-123 74 -123 131v17q18 84 31 84 l-23 215l8 53l-8 31h8l-38 69h-39l-109 -39l-6 9h-8q-22 -12 -185 -31l-38 -115l30 -170v-30q-29 -76 -45 -177q-29 -61 -100 -61q-57 51 -107 137l15 47l-9 23l78 162l-8 22l17 25l-17 28l8 39v17l-14 53h-16q-84 0 -115 70q-27 -1 -39 122z" />
<glyph unicode="i" horiz-adv-x="595" d="M59 188q6 33 27 33v47l-6 33q41 25 41 47l-15 27q6 113 27 182l-6 41h6l-33 59l33 54l-6 6v47q6 47 20 47l-8 27l8 47l-20 26l27 62l-7 6v6l15 27l-8 26l8 9v6l-29 53q14 18 14 47h7l-21 100l14 15v18l-8 8v6l115 48q74 -18 94 -62v-18q0 -59 14 -88l-14 -54l6 -20 l-12 -27q12 -25 12 -73v-15q-27 -29 -26 -47l8 -59q-29 -10 -29 -21v-26q0 -55 -12 -86l12 -27q-12 -18 -18 -100l6 -23q-6 -59 -14 -59l8 -21l-8 -47l14 -12l-14 -47l8 -6v-9l-8 -6v-6q29 -72 41 -180l-21 -55l6 -7v-14q-35 -27 -53 -98q0 -35 -59 -35h-15q-46 0 -80 86 q-31 0 -41 102z" />
<glyph unicode="j" horiz-adv-x="849" d="M0 272q0 262 102 263q20 0 111 59l57 8q102 -6 103 -24v-9q-63 -76 -119 -102l-33 -102q63 -186 289 -187q100 158 100 221v84q6 51 27 52l-27 43v24q0 102 -59 246l8 8v8q-55 174 -160 273q0 29 -67 59q0 27 -94 84l-9 137q20 76 41 76h43q98 -10 187 -170 q104 -143 110 -213q100 -133 170 -465l17 -170v-8l-9 -35l9 -43l-9 -57l9 -8v-11q-10 -145 -60 -254q-51 -57 -67 -127q-37 0 -68 -32l-76 -11l-86 43l-143 52q-6 20 -135 84q-78 78 -127 161q-18 0 -19 33l-8 10h-8zM213 344v8l8 10h8l9 -10v-8l-9 -8h-8z" />
<glyph unicode="k" horiz-adv-x="1286" d="M0 1067v33q0 55 25 61l-9 8v9q37 119 56 125l6 8h33q16 0 47 -78q23 0 69 -86l-14 -17l31 -94l-8 -32v-7q47 -51 47 -127h22l103 86l8 -8q96 76 243 152q66 82 220 172q0 31 118 86l54 39q63 0 110 39q88 0 150 -111q0 -100 -56 -100h-22l-39 8q-6 -25 -94 -64 q-6 -39 -158 -118q-45 -61 -102 -62l-78 -71q0 -16 -55 -23l-17 -25q0 -16 133 -211q39 -37 56 -124q43 -31 77 -127l144 -181q61 -18 61 -86l8 -55q-84 -86 -118 -86q-88 12 -109 55q-37 0 -80 103q-123 151 -147 233q-147 240 -236 277h-16q-172 -104 -172 -222l-17 -47 l-8 -8l8 -108l-22 -25q14 -16 39 -195q-8 -31 -39 -47h-16q-102 0 -134 111v6q0 27 31 64v8l-39 61q23 37 33 158l-55 111q6 141 22 194q-39 18 -39 39l8 55l-8 8h-8l8 39q-30 187 -55 197z" />
<glyph unicode="l" horiz-adv-x="868" d="M0 1200l8 74l-8 55q22 111 129 111l8 10q66 -23 66 -55l-19 -29l74 -84l10 -37l-28 -53l10 -10v-11l-19 -63l9 -29l-9 -100v-29l9 -100l-9 -39l9 -8v-8l-19 -84l10 -185v-55l37 -129h19q80 0 184 119q33 0 45 65l205 56l37 -11l82 11h28q72 -59 72 -129v-47 q0 -37 -192 -64l-74 -37q0 -27 -195 -168q-131 -121 -184 -137l-27 8l-55 -8q-139 55 -139 147q0 47 18 48l-8 8v28l8 82q-41 98 -63 748z" />
<glyph unicode="m" horiz-adv-x="1333" d="M0 98l10 11l-10 47v295q29 98 29 215v18q29 33 39 88l-9 31l9 8h10l-10 49l30 215q0 127 -20 187q8 215 78 215l10 10h10q72 0 156 -176q33 -39 137 -303l88 -314q20 0 21 -28l10 -11h8q254 328 295 459q25 0 47 88v70q25 63 88 96q102 0 148 -194q20 0 38 -68l-18 -88 l8 -127q0 -217 -67 -451l10 -10l-21 -137q20 -76 60 -117v-49q-43 -78 -148 -78q-98 104 -98 236l31 321l-11 29l21 59v127h-10q-154 -248 -187 -274q-135 -244 -176 -244q-163 0 -215 197l21 18q-29 47 -50 148h11q-37 139 -70 145l-59 -438l10 -88l-10 -99l30 -157 l-38 -29h-89q-92 33 -147 98z" />
<glyph unicode="n" horiz-adv-x="1150" d="M0 1264q37 96 117 133h67l152 -125q76 -35 149 -168q121 -96 152 -193l90 -108l-8 -25q23 -2 84 -168q28 -49 43 -49q18 0 41 49q-33 45 -33 117v27q14 18 25 84l-9 8v8l25 141l-16 109l8 35l-17 14v27l9 8v8l-84 76l-9 92q74 100 193 100q43 -3 92 -159q35 0 57 -41v-9 l-8 -43q33 -18 33 -41q-6 -43 -90 -75h-8l-8 8h-11l-14 -17l6 -40l-6 -11l14 -24q-6 -57 -14 -58l6 -10v-57l19 -101l-11 -41l11 -51l-11 -24q16 0 27 -76l-16 -41l8 -8v-43l-8 -8l8 -9v-32l-8 -11l8 -24l-27 -41l8 -8v-9l-8 -34l27 -82q-6 -78 -84 -160q0 -39 -60 -68 q-141 0 -141 185h8l-8 8v16l8 8q-34 83 -184 277l-33 84q0 28 -67 117q0 33 -117 143q0 41 -109 133v8h-10l-14 -16l14 -92l-6 -25l6 -51l-6 -8v-8l16 -125h-10l10 -8v-35l-10 -9l18 -49v-8l-8 -8l17 -84h-9l25 -51v-25l-8 -8l84 -109l16 -116q0 -74 -117 -160 q-68 0 -124 92q-35 109 -35 176l-17 17l9 24l-9 33q12 68 25 68q-41 86 -41 143h8l-8 8q6 49 16 49l-8 8v9l8 10q-8 41 -24 41l8 41l-8 219q-18 10 -27 182q-18 3 -49 144z" />
<glyph unicode="o" horiz-adv-x="1085" d="M0 889l10 49l-10 8v10q0 307 188 521l52 10h28l111 -111h10l70 31q158 -18 438 -360q111 -227 111 -369q0 -268 -111 -479q-49 -35 -119 -140q-88 -55 -160 -59q-117 29 -169 90l-60 -10q-18 57 -139 119q-199 236 -201 329q-37 27 -49 361zM160 688q25 -133 170 -309 q0 -78 188 -121q246 0 320 461l-11 59l11 39q-55 82 -80 180q-170 160 -230 181l-39 -21l-131 90q-135 -86 -159 -200l-39 -338v-21z" />
<glyph unicode="p" horiz-adv-x="952" d="M-102 1309q0 49 309 92q0 20 92 33l6 -9h10q18 14 125 25l9 8l8 -8l73 16l11 -8l90 17l43 -9l33 9q283 -25 282 -218l17 -100q-12 0 -50 -115l-149 -149q-16 0 -16 33h-43l-25 16l-49 -68h16l25 25q84 -10 84 -33v-24q-35 -43 -193 -117q-51 -23 -51 -57 q-102 -37 -115 -101q57 -283 90 -342q25 -6 25 -67v-8l-6 -9l16 -65v-33q0 -25 -76 -43q-102 88 -108 174q-33 39 -33 125q-49 55 -92 317q-37 59 -66 242q-23 0 -59 133l8 8v9q-18 125 -125 125l-49 18q-67 117 -67 158zM215 1184q0 -29 109 -234q0 -70 65 -116h27 q227 88 291 198q125 68 124.5 168t-184.5 100l-33 -18l-59 10q-264 -59 -299 -84q-41 -6 -41 -24zM332 1317l57 -8l76 41h-41q-92 0 -92 -25v-8z" />
<glyph unicode="q" horiz-adv-x="1216" d="M0 459l29 28v7q-23 29 -23 65l17 66l-17 14v12q37 94 37 137l-6 9v8q0 61 72 158q0 23 34 57q49 68 72 143q25 0 154 146q162 133 252 137q174 -88 258 -117q174 -49 174 -135q28 -15 86 -203v-28l-9 -23l17 -80q0 -49 -43 -129l6 -43q-28 -65 -86 -123q-40 -74 -86 -123 q0 -10 -117 -114l-8 -35v-66l-6 -8q0 -14 72 -115l65 -28l6 8h8q45 0 101 -51v-8q-12 -57 -152 -201l-63 -21q-94 25 -94 64q-51 0 -52 88l-20 29v20l6 29q-4 16 -63 80h-9q-37 0 -151 -103l-92 -12l-9 6l-36 -6h-21l-8 6l-6 -6h-8q-80 0 -209 201v20l8 8v6q-20 25 -37 146 q-43 47 -43 80zM143 625l17 -60l-8 -63l14 -43l-6 -31q35 -20 35 -57l-9 -29q47 -68 146 -109l43 -6q70 16 166 101l-9 51v6l9 8q-20 80 -52 101l-14 65q0 166 86 166q88 0 146 -100l-9 -9v-8q22 -86 37 -86q94 43 94 103l93 143q23 27 22 57l-6 29q12 0 20 43l-8 8v6l8 9v6 l-8 22l8 43q0 61 -86 101h-59l-20 -15h-52l-6 8q-55 -18 -71 -59q0 -18 -60 -29q-53 0 -86 95l23 59l-23 12h-14q-47 0 -101 -78q-49 0 -129 -145q-22 -15 -43 -80q-51 -32 -88 -235z" />
<glyph unicode="r" horiz-adv-x="1314" d="M-80 1192v6l8 33l-8 8v8q61 135 113 135l160 -47q0 -16 55 -16q0 25 88 24l33 -8l8 8l55 -8h105l86 25l32 -25l9 8h16l6 -8h8l17 17h32q408 -55 408 -72q121 -90 121 -145q47 -61 47 -119v-33q-92 -176 -184 -176q-68 -53 -304 -135q-55 -47 -129 -47q-16 0 -16 -25 q-55 -14 -55 -33q39 -45 184 -88q2 -16 88 -30q0 -27 105 -58q0 -33 102 -47q43 -51 176 -80q45 -51 57 -112q-33 -135 -120 -136l-17 -16h-22q-129 92 -168 160q-106 78 -201 104l-72 39l-49 -6q-246 88 -303 88l-6 -8v-17q0 -72 23 -96v-63q39 0 49 -97q-63 -57 -146 -57 h-14q-53 0 -66 80q-23 14 -22 49q-33 12 -33 25v8l8 31l-8 8v8l8 8l-8 25l8 63q-33 143 -57 144l8 41v22l-14 25l14 24v39l-8 33l8 8l-8 39l8 41l-14 14v33l14 64q-16 23 -47 208q-94 19 -168 105zM336 1118l16 -55l-8 -8v-8l33 -193v-55l-17 -25v-6l9 -33l-9 -24l9 -9h80 l16 17l39 -8l160 32h16q0 35 270 144q0 16 74 55q47 49 47 82q-18 94 -55 94q-61 0 -74 33l-80 -8h-14q-41 0 -41 16l-160 -24l-94 16h-25l-41 -8v8l-8 -8h-71q-41 0 -72 -25z" />
<glyph unicode="s" horiz-adv-x="1048" d="M0 217q33 74 90 74l336 -74q307 61 307 154q0 71 -153 153q0 37 -109 74l-45 -8q-8 27 -55 26h-72l-172 101q0 29 -64 80q-45 96 -45 153q0 51 54 183q227 272 336 272q61 27 135 27q61 -16 153 -127l21 -56v-16q0 -52 -92 -111h-54q-29 0 -63 29h-10q-78 -8 -172 -109 q-41 0 -72 -55v-45q0 -68 209 -135q84 -53 299 -145q188 -164 188 -310q0 -33 29 -71v-19q-65 -138 -209 -209q-45 0 -63 -16l-11 8q-135 -23 -188 -45q-123 14 -227 63l-101 9l-45 -9q-127 29 -127 127z" />
<glyph unicode="t" horiz-adv-x="1083" d="M-150 1176v6q0 72 52 121l30 -9l9 9h6l76 -9q123 37 163 37h9v-8l22 8q174 0 248 31l20 -8q301 72 428 129q0 12 68 20q104 -20 104 -155v-25q-12 -43 -53 -43l-135 -39l-336 -90l-45 -102l6 -9v-30l8 -74l-8 -45l8 -8l-8 -37v-135l-6 -9l6 -6v-67l8 -172l-8 -37l25 -135 l-8 -31l8 -6v-8l-8 -9v-8l8 -37l-8 -45l8 -73v-23l-45 -45q-113 37 -113 113q-14 0 -22 45h-9l9 45l-9 82l23 53l-6 6v141l-8 76h8l-8 8l8 37v68l-8 37l14 172l-14 104l8 53l-17 68h-73l-9 6q-25 -22 -202 -37q-49 -37 -82 -37v9l-23 -9q-92 1 -119 136z" />
<glyph unicode="u" horiz-adv-x="1267" d="M2 641l25 109l-17 16l8 8v8l-8 25q25 45 25 125v8q0 16 -25 16l-8 11v8l39 92l-6 33q43 131 59 133l62 16q51 0 77 -100l7 -8l8 -25h8q-20 -176 -70 -225v-35l17 -33l-8 -24l8 -58l-25 -75l17 -50v-34l-9 -33l17 -68l-17 -41q25 -109 76 -108q86 -76 162 -76l22 -6v-8 q76 12 76 24l39 -10q150 31 176 76q37 0 54 16l77 -6q61 76 62 115v10l-8 33l30 182l-22 25v67q0 25 -39 82q-6 76 -23 76l15 76l-9 59q12 106 70 107l23 32h8q70 -16 69 -41l-8 -8l54 -65l16 -111v-14h-8l8 -43v-68l-8 -6l39 -168l-9 -41v-43q0 -57 31 -131l-31 -143l9 -9 v-41q-94 -168 -140 -168l-59 -32v-8l-47 8q-39 -25 -78 -25h-14l-45 8l-101 -41l-30 9l-84 -25l-62 16h-84l-31 -10q-31 0 -30 43q-72 31 -154 41q-37 15 -92 92q-29 0 -76 160v41l8 49l-8 25l17 35l-9 24l9 8v8l-17 33l8 33z" />
<glyph unicode="v" horiz-adv-x="901" d="M0 1137q12 150 133 149q80 0 80 -94q33 0 72 -166h14v-16q0 -16 -23 -17v-22q23 -25 39 -150q20 -31 47 -174l72 -149q25 0 55 116l-8 9v8q39 8 39 24l-8 31q33 0 80 221q20 0 39 174h8l-8 9v8l24 61v8l-16 56h8l-8 8v8q55 172 133 172q0 14 55 16q96 -25 97 -47l-17 -14 l17 -41q-18 -3 -80 -141q-33 -12 -56 -144q-18 -2 -63 -172l-14 -16l8 -47l-113 -379v-64q-23 -23 -47 -141q-37 -35 -47 -119l8 -8v-8q0 -86 -69 -86q-115 0 -152 102q0 33 -31 64l17 72v38q0 23 -56 117l9 41l-72 133v56q0 33 -55 88q-20 145 -72 213v22l16 25 q-23 33 -22 78q-15 84 -33 88z" />
<glyph unicode="w" horiz-adv-x="1458" d="M0 1206q37 59 123 103h67q10 0 21 -29q27 0 41 -74l55 -61l-8 -55l8 -48l-14 -41l20 -129l-6 -20l62 -164l-9 -20q31 -184 68 -185l23 9v12q-20 23 -23 61q52 0 55 117q18 0 35 82l-6 6l33 150l-6 26l6 35l-6 6v8l14 27l-14 76l6 20l-27 12v35l-14 56q27 115 158 114h6 q123 -141 123 -205l61 -135l68 -252q49 -98 49 -157q16 -23 53 -150l6 -8h23v8l-9 33q23 0 48 117l-7 20q35 23 35 56q25 0 27 47l-15 88l29 116l-14 62q4 35 14 35l-8 6v26q29 25 29 103l-9 53q16 0 27 55l-12 41l8 9l-8 6v14l8 6l-29 68q80 102 138 102h6q27 -23 47 -82 q49 -18 49 -82v-12q-57 -57 -76 -102l6 -35v-15l-12 -41h-8l8 -6v-6q-4 -55 -20 -55l6 -35v-6l-6 -35l12 -59q-16 -33 -27 -103l6 -8v-6q0 -135 -82 -451q0 -55 -47 -108l6 -41l-26 -68l6 -41l-33 -41h-35q0 -47 -26 -47h-29l-6 6h-6l-6 -6q0 10 -41 27v6l6 21h-6 q-37 0 -56 116v15l7 26l-48 94l21 23q-31 53 -47 127l6 23q-61 111 -61 176q-23 0 -48 137q-20 14 -20 33q-20 0 -47 -88l-23 -21v-6h15v-6l-41 -172h-6l14 -47l-29 -56l21 -18q-33 -63 -33 -152l-8 -6v-8l8 -33q-49 -78 -70 -178q-68 -47 -96 -47h-12q-96 74 -97 150 l-32 40v9l20 26l-14 33l6 49q-35 76 -41 144l-53 184q-59 158 -76 252q-29 47 -35 129q-94 127 -94 190z" />
<glyph unicode="x" horiz-adv-x="1091" d="M-8 129q10 129 100 217q184 191 185 228q0 110 -70 225l8 8v8l-100 197q-41 37 -45 80l-27 30l6 41l-4 80q-2 20 36 38.5t116 35.5h8h1q33 0 54 -135q57 -59 111 -246l16 -14l-14 -25l69 -86l25 -6q82 63 115 141q37 2 176 189q18 0 61 59l-8 8v8q70 45 70 78 q123 98 123 113q0 18 63 26l35 -22q3 -40 67 -62l19 -38q6 -90 -119 -226q-80 -117 -164 -123q-258 -289 -301 -444l-14 -27q64 -252 139 -252h2q61 -51 64 -110h3q29 0 31 -47q-82 -100 -172 -107q-129 14 -133 60q-31 96 -73 149l4 74q0 29 -60 53q-51 -2 -143 -194 q-100 -94 -182 -99q-49 31 -54 78q-1 39 -24 39z" />
<glyph unicode="y" horiz-adv-x="1003" d="M0 1427v27q43 31 43 64l6 8h35q68 0 162 -217q82 -123 139 -267q55 -40 55 -92q141 -174 183 -174l84 162l-7 6v6l41 64l-14 35q18 104 37 118v15q-16 16 -23 78q18 53 35 63l-8 35v20l78 56h8q55 0 90 -183v-14l-29 -203l-26 -20l6 -6v-9l-35 -55l6 -43 q-84 -92 -102 -174l-23 -20l9 -27l-99 -156q0 -37 -49 -69q0 -49 -63 -125q-82 -168 -105 -191v-55q0 -31 -43 -84h-12q-61 0 -98 78q6 90 90 188q0 90 43 90q0 25 55 113q0 23 43 113q0 14 -57 49q-70 133 -119 145l6 21q-49 66 -70 133q-53 59 -84 133q-20 0 -20 20 q-40 0 -49 93q-51 106 -90 124l-23 84h8z" />
<glyph unicode="z" horiz-adv-x="1355" d="M0 1141v18q109 158 133 158l70 8h28l111 -16l45 16h45l8 -8l60 18h45l119 -10l61 29l43 -8l39 8l82 -19l22 11l43 -11h76l60 19h30q63 0 88 -82q-20 -68 -20 -131q-55 -166 -180 -232q0 -33 -136 -131q-8 -43 -104 -92l-29 -37q0 -31 -209 -260l-8 -84l37 -37h39 q71 37 215 37h8q27 20 359 84l45 19q59 -92 59 -121l-76 -27q-74 -37 -73 -76l-269 -92q0 -27 -141 -47q0 -15 -98 -37h-6l-46 10l-38 -18l-119 29h-68q-66 41 -110 118h-9l9 11v10l-9 27l9 47v37l-17 26l17 29l-9 47q111 76 136 121q0 51 102 129q0 43 84 84q16 88 133 157 q0 41 68 82l30 84l-22 19h-121l-20 18h-336q-154 0 -172 -37h-68z" />
<glyph unicode="{" horiz-adv-x="1576" d="M0 500v59q0 16 127 39l27 23l14 -23q215 12 215 35h12l27 -6q10 12 94 12l27 14l26 -8l95 29l14 -15l86 27l20 -12h54l41 6q66 -45 65 -82q-20 -55 -59 -72l-21 6q-96 -10 -135 -32h-4l-14 12l-47 -6h-48q-88 -94 -188 -94l-18 -15l-56 9l-233 -62l-6 -6q-88 51 -88 121z M227 1337l15 39l-6 6v9l6 6v8l-6 4v8q2 16 45 47h61l47 6q0 -72 490 -180l145 -53l8 -61l-8 -21l20 -18l-71 -129l-8 -7h-7l-26 7l-6 -7h-8q-53 0 -113 80l-76 29l-18 -8q-55 37 -242 74q0 14 -59 20h-21l-41 -6q-33 0 -100 92q-1 32 -21 55zM416 -311q59 66 59 106l62 47 l53 -6l121 74q43 0 80 53q35 0 88 39q57 0 94 82q66 41 106 41h21q47 0 47 -47v-21l-14 -20l6 -27q-59 -12 -60 -53q-14 0 -59 -68q-72 0 -141 -88q-61 -55 -189 -112q-12 -33 -59 -33q0 -72 -103 -82l-32 -6q-27 10 -47 41l8 6v6q-41 29 -41 68z" />
<glyph unicode="|" horiz-adv-x="585" d="M150 -51l71 276l-8 35l8 45l-16 19q25 77 24 178l-8 63l19 19v16l-19 27l19 26l-11 37l19 72l-8 8v8l26 125l-10 10v9l10 26l-10 35l18 90l-18 72l18 178q0 82 -26 117v26l18 27l-10 90l10 43q-22 55 -37 55q10 123 82 224q143 -14 144 -144v-10l-11 -61l19 -54v-18 l-45 -205l18 -18v-35l-18 -27l18 -108l-26 -80l16 -80v-72l-27 -98l11 -43l-27 -55l16 -54h-8l8 -10q-41 -330 -61 -330l16 -79l-8 -99l8 -26l-8 -9h-8l8 -26l-8 -10v-9l8 -10v-8l-16 -35l53 -242l-29 -43v-26l11 -37q-20 -43 -35 -45l-11 8l-8 -8h-10l-8 8h-8l-37 -8 q-98 72 -98 151l10 27l-10 55v17z" />
<glyph unicode="}" horiz-adv-x="1910" d="M190 1210v15q57 57 72 98q160 123 270 143q23 41 254 127q121 66 121 101l142 35q0 -12 71 -43l29 -35q0 -29 -29 -52q0 -29 -63 -83q0 -72 -199 -86q-231 -98 -389 -142q-100 -43 -100 -71q0 -49 -43 -50l-15 -20q-72 0 -121 63zM375 289q20 55 43 55l20 -6l31 35 q127 0 190 -113v-14q33 0 58 -35q127 -109 141 -150q41 0 57 -51q70 -59 99 -104q35 0 51 -66l6 -6v-6q-29 0 -29 -49q-84 -94 -163 -94q-63 57 -70 94q-18 0 -115 127q-52 74 -135 147l-55 -6l-29 21l-29 -7q-51 72 -71 228zM504 750q27 0 35 63q39 41 106 41l29 -6l43 6 l6 -6h6l31 14l26 -8l43 16l15 -16l43 8l35 -8l20 8l80 -8h35q31 20 397 43l98 -98v-6q0 -57 -63 -101q-52 -86 -98 -86l-37 8l-21 -8l-190 31l-37 -8l-127 14l-23 -6l-57 6l-70 -6l-34 6l-52 -6l-20 6q-23 -29 -98 -29l-15 -14h-8q-55 18 -55 57q-15 1 -43 93z" />
<glyph unicode="~" horiz-adv-x="1378" d="M0 512l33 92q28 71 61 80q45 59 45 88q23 4 88 59l62 21q143 -45 286 -127q0 -35 134 -113h6l53 21l8 -8h6q23 6 68 47q66 0 65 26q0 47 33 47l35 86q0 45 21 68l59 -12l27 6q41 0 40 -109v-24q-55 -135 -88 -135q-6 -43 -71 -95q-43 -80 -121 -79l-62 -33l-38 6l-9 -6 l-92 12l-8 -6h-6q-39 0 -107 94q0 37 -168 80l-38 -27l-27 7l-35 -13v6q-18 0 -113 -147l-73 -12q0 37 -47 47z" />
<glyph unicode="&#xa1;" horiz-adv-x="868" d="M0 -414l39 131q14 0 27 86l32 45l-6 9v6q31 70 53 203l25 65l14 14l-6 33q16 0 33 72q25 0 78 158l-6 6v8q52 154 92 196q33 0 47 15h33q27 -12 57 -62l-6 -39l6 -24q-66 -96 -66 -146q-18 0 -18 -47q-31 0 -119 -235l-98 -223q0 -27 -21 -27l7 -6v-8l-33 -45v-21 q53 0 53 -45l21 -20q-106 -131 -166 -131h-6q-66 22 -66 32zM369 1032q29 106 59 107q0 14 72 32q113 0 112 -79l6 -7q-14 -29 -14 -71v-47q0 -27 -57 -27q-20 -33 -47 -33q0 14 -78 39q-35 35 -53 86z" />
<glyph unicode="&#xa2;" d="M0 393l12 101l-6 26l6 6l37 58l-6 6v6q113 133 176 156q27 23 27 57h30q131 63 222 82q0 25 24 24v13l-12 18v8q25 25 25 74l-7 21q0 86 70 106q68 0 94 -57l-6 -31q25 -9 25 -18v-7l-13 -18l31 -57l6 6h6q102 0 103 -107q-35 -33 -88 -51l-8 6h-7l-61 -43 q-41 -16 -109 -252l15 -45q-29 0 -31 -88h25q18 0 79 45l39 -6q23 0 70 43h31l55 -6l20 6q82 -33 82 -43q-45 -94 -75 -94l-43 12l-109 -63q-35 -18 -106 -31l-37 -27h-21l-6 9h-4l-8 -9q-37 0 -55 -137v-45q31 -68 43 -149v-7q0 -10 -43 -38h-27q-76 70 -76 157l-4 6v7 l4 30q-6 53 -18 70v39h-58l-55 6l-45 -6l-61 37l-31 -6q0 18 -64 51q-6 27 -45 82zM164 438q18 0 18 -32q47 -47 119 -56l64 6v-6q39 0 57 94l24 37l-12 31q37 147 37 197l-6 6h-6q-139 -39 -183 -107q-35 0 -94 -127q0 -31 -18 -30v-13z" />
<glyph unicode="&#xa3;" d="M0 223q16 53 41 60q29 135 78 135l6 -6l22 6l117 -6v-6l6 6q59 -6 95 -25l12 37v6q-18 0 -19 10v6q23 0 41 125l-16 13h-78l-16 -13l-107 7q-23 47 -57 47l-12 94q0 43 135 69l98 -22l12 10l-28 47l6 35v6l-41 41l4 19q-23 6 -23 24l7 4v6l-41 107l41 207q23 4 22 41 q14 0 37 47l182 82v-6l6 6h7q57 -2 57 -12l18 6q104 -55 136 -142l22 -75l-4 -29l4 -31l-88 -158l-4 -6h-25q-35 0 -69 47v23l47 160q0 47 -90 63h-4l-37 -6l-29 6q-55 0 -100 -98l6 -53l-6 -19l6 -6v-4l-12 -31l18 -18l-6 -29q10 0 53 -141l23 -31v-4l-7 -6 q18 -100 78 -100l88 -13l29 13l41 -13l47 6q59 -6 59 -63q-51 -51 -247 -72l-35 -12v-16l6 -25q-23 -55 -23 -82v-6l5 -41q-18 0 -23 -78q88 -57 170 -70l6 -6v-6l-6 -6v-4l18 -12l29 6l72 -35l41 -6q31 23 129 41l59 51q29 0 60 -51q0 -16 -91 -88q0 -35 -63 -60 q-18 0 -31 -34l-53 -25q-166 43 -328 119q-16 0 -43 22q-47 0 -47 35q-47 0 -145 -92q0 -23 -78 -125q-86 0 -123 59q-27 0 -47 164z" />
<glyph unicode="&#xa7;" horiz-adv-x="991" />
<glyph unicode="&#xa8;" horiz-adv-x="681" d="M0 1556l6 7l-6 6v41q72 90 106 90h41l19 10h6q47 -72 47 -201h-6l6 -6v-6q-6 -23 -37 -47q-8 -100 -63 -100h-19q-70 6 -69 71l-13 23l7 24l-7 7l7 28v25zM332 1591q0 57 47 90q6 47 90 48l4 6l6 -6h6l70 12l6 -6v-13l-6 -82l25 -43q0 -61 -95 -188l-28 -6l-25 6l-6 -6 q-6 29 -66 47l-6 6v6l6 6q-23 10 -22 35l4 6v7l-4 6v6l4 22z" />
<glyph unicode="&#xa9;" horiz-adv-x="1507" d="M0 360v11q0 15 25 18v6l-7 54l17 135l-6 6v6l43 129l10 10v31l-10 18v11q31 39 75 178q29 8 76 110q43 43 135 179q12 0 41 34q12 0 78 60q16 0 72 57l117 53l82 13l18 -19h10l25 13q152 -37 223 -136l31 -71l-19 -11l-16 17q-29 0 -47 -29q55 -16 192 -113 q139 -111 189 -210q47 -61 71 -185l7 -35l-35 -141l6 -16q-66 -47 -66 -82q-35 -16 -84 -78q-41 0 -59 -47q-23 0 -82 -66q-57 -14 -57 -47q-119 -43 -119 -69q-61 -61 -123 -82q-51 -51 -84 -66l-4 6h-6q-57 -41 -123 -53l-25 6l-41 -22h-34l-60 12l-12 -12h-18l-17 12h-72 q-37 31 -88 41q0 16 -59 41q-55 31 -76 92q-66 113 -65 135l6 6v6zM100 518l19 -51l-13 -25l19 -59l-6 -53q14 0 41 -101q18 0 28 -41q14 0 35 -28q12 0 94 -60l154 -16l94 29v-7q86 0 148 76l22 -12l88 47q41 59 166 119l101 88q12 0 34 25l-6 6v6q0 6 53 22q45 63 89 101 q0 16 40 94l7 63q-29 115 -158 267q-96 84 -236 141q0 8 -106 16q-41 29 -41 43q0 49 141 76v6q-23 27 -125 53l-6 -6l-28 6h-35q-123 -25 -123 -47q-49 0 -148 -106q-45 -23 -84 -100q-18 -53 -47 -54q-25 -23 -57 -94q-14 -6 -41 -76q-20 -10 -53 -172q-18 0 -19 -35 l-6 -6q-14 -57 -29 -63l7 -31v-4zM305 578v6q0 14 25 16v25q12 76 41 116q0 47 71 90q0 23 41 48q10 33 107 69q0 14 69 35q0 31 41 31l48 -6l28 6q74 -18 78 -47q29 0 29 -41l-17 -19q29 -70 29 -100v-23q-14 -31 -94 -30q0 25 -41 24q-10 25 -41 41h-12l-66 -12l-29 6 q0 -16 -57 -35q-84 -88 -96 -125v-63l-10 -47q41 -59 88 -60l28 6l25 -6q0 10 76 25q0 16 135 47l82 45q80 0 112 -57l25 -19q-16 -6 -41 -75l-25 -13l-28 6q-154 -49 -219 -82l-111 -30h-25l-12 12q-25 -12 -76 -12h-24q-18 20 -82 41q-72 144 -72 207zM926 1278 q10 -23 16 -23l12 11l-18 12h-10z" />
<glyph unicode="&#xaa;" horiz-adv-x="960" d="M0 199v71q33 51 72 176q25 0 24 66l8 6l23 33l-6 31q78 274 78 383l-9 24q33 12 33 25v55q72 424 144 424l49 6h14q41 -23 41 -72q20 0 127 -143l80 -207l55 -239l8 -9h9q143 31 159 58h31l16 -17l-16 -24v-72q-31 -45 -158 -143l-8 -58q23 -92 47 -460q12 0 17 -97 l-25 -16h-14q-57 0 -121 143q-16 53 -25 224h9l-23 41v55l14 24l-22 17h-8q-82 -31 -177 -129h-38q-51 0 -113 49h-8q-39 -76 -39 -113q-39 -72 -72 -215l-63 -33q-88 0 -88 58q-23 23 -25 78zM342 741l8 -55v-47q109 0 193 102q55 6 55 41q-33 162 -47 166l8 41l-41 72v8 l8 25l-8 8l-31 47l-8 8q-65 0 -80 -239q-22 -177 -57 -177z" />
<glyph unicode="&#xab;" horiz-adv-x="1193" d="M0 330l14 28l-8 27q35 125 125 125l76 53q0 45 67 70l35 35l-6 6v8q184 166 184 176q0 20 35 55l-6 9v6q43 31 68 90l98 26q74 -20 74 -102q-10 0 -41 -55q-37 -37 -82 -56l-262 -268q0 -16 -97 -102l-6 -29q10 -12 76 -12q12 -41 76 -41q12 -37 131 -76q45 -55 123 -96 l55 -64q-25 -123 -102 -123q0 -20 -29 -20q-131 78 -152 117l-75 69q-47 12 -144 62l-8 -6h-6l-172 47zM420 469l53 143q59 2 160 97q39 16 67 61q41 0 70 117q61 0 61 49l70 41q47 0 129 -82v-29q-41 -90 -102 -90q0 -10 -56 -33q0 -29 -137 -116l-12 -70q8 -14 82 -14 q2 -16 61 -33q0 -29 82 -78q0 -27 29 -26q68 -127 67 -158q-29 -90 -81 -90q-117 18 -117 55q-18 0 -55 61q-68 96 -193 97l-96 20z" />
<glyph unicode="&#xad;" horiz-adv-x="909" d="M0 629l18 37l-12 36q0 18 64 27q0 12 245 31q0 10 58 12q0 35 194 57l43 -12l88 12l52 -45l6 -24q0 -70 -189 -101l-24 13q-27 -20 -146 -33q-86 -31 -151 -37v6l-164 -43q-82 19 -82 64z" />
<glyph unicode="&#xae;" horiz-adv-x="1507" d="M0 891l8 18l-4 4v7l4 4v4l-4 14l10 49l-6 29q0 86 51 131q18 33 19 80q23 12 22 35l82 96q12 0 19 33q63 47 110 100q16 0 101 74q14 0 92 51q141 43 178 43v6q76 0 160 -47q0 -12 37 -45q23 -29 22 -45l-4 -14l4 -19l-8 -8q0 -10 41 -33l4 4h8q86 -23 121 -82l35 -59v-4 l-4 -4v-6q27 0 51 -109l16 -133q-6 0 -12 -41l-63 -141l-84 -111q-66 -88 -82 -88q0 -18 -60 -45q-18 -45 -241 -115l-15 6l-41 -6h-18l-4 6h-4l-6 -6v-4l-72 10l-14 -6l-15 11l-33 -5h-16l-4 5l-6 -5h-4l-45 15h-33q-25 27 -96 26l-86 78l-78 115l4 22l-33 60l4 22zM78 928 l18 -15l-6 -22v-12q0 -47 70 -134q72 -63 96 -63l100 -25l37 7l45 -21h15l67 14l6 -4h4l11 11h8l18 -11l60 15l4 4h8l20 -4q96 37 97 45q37 29 86 47l73 76q0 16 64 73q0 10 68 97q0 14 14 14l6 4v8l-6 19l14 36q-16 123 -22 130l4 4v4q-39 102 -86 133q-72 37 -129 47 l-4 -6h-7q-37 6 -81 33h-5v22l-4 23q29 23 41 22l-4 4l-18 10q-23 37 -51 37v4l-4 -4h-11l-35 9h-20l-16 -5l-7 5h-4l-155 -68l-82 -45l-160 -152q-25 -49 -70 -104q-18 -51 -30 -66v-14l4 -12q-10 -4 -41 -82l4 -6v-4l-4 -15l4 -41v-12l-4 -6v-4zM393 1325v14q18 27 23 52 q12 23 55 22v4l23 -4h55q0 18 47 19q6 -18 12 -19l60 4l123 -26q3 -12 36 -25l15 -63h-4l8 -27v-4q0 -55 -111 -144l-57 -26v-19q2 -8 57 -26q27 -14 43 -47q74 -12 74 -31q35 -37 35 -59q-12 -18 -13 -41q-37 -20 -63 -21v6l-6 -6h-4q-55 0 -78 39l-178 104l-15 -6v-30 l-10 -15v-26l37 -37v-19q-63 -63 -90 -63q-16 23 -37 22v4l4 15q-10 53 -18 59l6 23l-14 51l4 4l-4 23v4q18 18 18 47v12l-10 37v8q14 16 14 33v33l-14 30l14 33q-23 10 -22 64zM549 1194l33 -14q119 39 118 86l-47 14l-4 4h-51q-18 0 -31 -53q-18 0 -18 -37z" />
<glyph unicode="&#xb0;" horiz-adv-x="817" d="M0 1155l18 59l-6 23q29 113 60 113q16 14 16 47l25 24l28 -6h6q31 59 89 60q16 41 34 41l19 -7l22 7l43 -7l35 7q0 -16 72 -29q111 -49 110 -131l29 -53l-4 -60l4 -16q0 -109 -63 -160q0 -33 -48 -70q0 -29 -159 -77l-6 -7l-35 7l-31 -19q-143 47 -174 72q-70 71 -84 182 zM147 1196q14 -86 41 -86q0 -37 101 -37q49 41 119 66q0 16 47 63v19q0 76 -47 106h-7q-29 -41 -71 -59l-19 6l-35 -6q0 12 -28 18q-46 0 -101 -90z" />
<glyph unicode="&#xb1;" horiz-adv-x="1122" d="M0 61l6 7v6l-6 26q0 88 213 113l6 -4h6q27 16 62 16l22 -12l33 12l51 -16h13l32 16l97 -12l26 6l35 -6l29 6l20 -10l270 16q51 -45 52 -67l-6 -29q25 -10 32 -29l-78 -26l-106 -19l-35 6l-84 -26h-33l-45 10l-57 -10q0 10 -16 10l-156 -16l-74 6h-28l-23 -6l-4 6h-6 l-123 -35h-12q-27 0 -113 61zM96 670q23 23 23 71l33 52l51 -7l51 7l16 -7q123 34 123 68l6 6v10l-12 19v4l19 22l-7 68q0 16 50 45l18 16h55q51 -55 51 -122v-52q0 -27 11 -26l22 4l33 -10l35 6v-6l6 6q63 -6 94 -25l25 6h4q16 -2 16 -45v-26q-33 -51 -104 -52 q-39 -29 -64 -28h-6q-129 0 -129 -29l-27 -123l5 -39q0 -25 -23 -51v-39l23 -39v-28q-61 -78 -107 -90q-39 0 -61 57q0 27 16 49v12l-23 29l29 84l-6 22q35 12 35 46v16q0 63 -29 74l-139 -41h-12q-101 43 -101 86z" />
<glyph unicode="&#xb2;" horiz-adv-x="1404" d="M111 -35q0 72 192 92q58 0 80 -86q-68 -119 -100 -135l-52 -20q-120 55 -120 149zM303 451l6 28l-6 8v7l6 8v6l-6 22l23 50l-9 28q33 0 58 207q14 0 14 29l-6 22l12 15l-12 20q70 14 70 80l22 29l-6 34q18 0 63 121q15 12 50 129q106 180 123 258q86 86 100 86 q78 -6 78 -28l-9 -35q16 0 17 -23q-23 -23 -23 -94q-25 -6 -57 -86q-55 -47 -115 -198q-25 -18 -100 -193q-25 0 -86 -152l-78 -206l-49 -158q-43 -80 -57 -80l-17 16l8 35zM590 -115q28 129 86 129l78 9q86 -18 86 -72l-66 -193l-35 -8h-63q-31 37 -66 37l-8 6v8l8 35z M645 178q16 0 17 37h6l-6 21l14 36l-14 15v28q39 41 83 207l-14 35q12 0 117 201q0 70 106 243q0 27 58 144q0 61 63 92l35 -6l31 6q59 -25 86 -57q0 -33 -94 -193q-47 -129 -136 -229q0 -33 -100 -150l-57 -129l8 -28q-46 0 -86 -172l-51 -93l-43 -20h-6z" />
<glyph unicode="&#xb3;" horiz-adv-x="2467" d="M201 1208l12 72l-6 29q0 53 94 108q18 37 145 66q29 0 29 14l37 -6l80 43l143 37h80l23 12q90 0 129 16l45 -16l12 16l45 -16l57 23q25 -16 123 -35q55 -18 80 -60l23 -129q-14 -98 -66 -174q0 -53 -151 -182q-23 -35 -123 -92l-154 -123l-29 -23q0 -31 -86 -65 q-49 -94 -88 -94l-51 -15l-35 23l6 6v8l-14 58q0 37 88 79q0 34 123 86q184 195 223 195q0 23 95 131q29 47 28 80q31 0 31 51h6l-14 29v14l8 23h-8l-72 28h-14l-23 -14h-8q-20 16 -63 21q-80 -6 -80 -21l-23 6l-86 -6l-22 6q0 -20 -166 -51l-152 -72q-94 -72 -108 -129 l-66 -14h-14q-43 28 -43 57zM446 -43q0 92 86 143l9 9h6q94 -57 168 -80v-15l-8 -37l8 -57q-63 -20 -140 -72l-49 -8q-14 0 -80 86l7 8zM1018 43q23 39 29 109q43 43 116 43l86 -72v-51q-29 -33 -28 -58l8 -22q-31 -39 -103 -49v6l-8 -6h-6q-57 0 -94 100zM1098 637l14 20 l-6 37v6q31 25 63 131q90 188 103 189l28 57q27 14 203 269q18 0 78 114q82 80 139 80l52 -20l6 6h8q20 0 20 -29q0 -113 -63 -143q-78 -72 -146 -183q-45 -18 -71 -86q-31 0 -31 -28q-12 0 -115 -139q-25 0 -94 -144q-41 -86 -80 -211l-37 -20h-14q-43 12 -43 51z" />
<glyph unicode="&#xb4;" horiz-adv-x="681" d="M0 1307v26l6 6l-6 7v6q0 33 74 59q0 23 110 41q88 84 106.5 84t45.5 33l94 39q0 12 51 28q0 16 84 33q74 0 74 -90l-23 -39l-6 6h-39q-23 0 -102 -55h-27q0 -34 -73 -55q-39 -55 -133 -109q-72 -51 -74 -65q-23 -6 -68 -52h-16q-78 38 -78 97z" />
<glyph unicode="&#xb5;" horiz-adv-x="4601" />
<glyph unicode="&#xb9;" horiz-adv-x="1202" d="M0 723v57q0 172 272 187q178 70 646 407q0 27 88 60q117 -22 116 -68q0 -49 -20 -49l10 -68v-30l-420 -965l10 -109q-61 -145 -98 -145h-29q-55 0 -98 78l-18 20v39q0 88 96 223q49 55 49 138q39 12 98 194q33 104 109 215l-10 11v10q39 57 39 88v18h-11 q-102 -88 -225 -127q-82 -80 -254 -145q-150 -127 -194 -127q-56 0 -156 88z" />
<glyph unicode="&#xba;" horiz-adv-x="1085" d="M0 889l10 49l-10 8v10q0 307 188 521l52 10h28l111 -111h10l70 31q158 -18 438 -360q111 -227 111 -369q0 -268 -111 -479q-49 -35 -119 -140q-88 -55 -160 -59q-117 29 -169 90l-60 -10q-18 57 -139 119q-199 236 -201 329q-37 27 -49 361zM160 688q25 -133 170 -309 q0 -78 188 -121q246 0 320 461l-11 59l11 39q-55 82 -80 180q-170 160 -230 181l-39 -21l-131 90q-135 -86 -159 -200l-39 -338v-21z" />
<glyph unicode="&#xbb;" horiz-adv-x="1312" d="M0 901q41 78 74 100q76 0 119 -67q104 -70 122 -70q34 0 86 -55l7 -6q18 0 198 -117q29 0 31 -49q119 -45 123 -62l-6 -8l12 -37v-12l-55 -110q-33 0 -193 -136q-39 0 -98 -94q0 -68 -199 -129h-43q-22 0 -49 80q9 0 18 43l89 70l36 -6q74 95 148 122q0 27 88 93l16 57 h-6l-10 22q-29 0 -82 68q-68 18 -68 45q-190 117 -266 117q-92 101 -92 141zM530 827l9 7v6l-9 37q14 14 15 51l61 37h74q113 -88 123 -88q43 0 110 -62q49 0 150 -61q25 0 61 -56l37 -18q0 -115 -110 -211q0 -25 -80 -74q0 -49 -74 -73q0 -25 -33 -25q-57 -98 -104 -156 q-40 -141 -62 -141h-36l-64 37l-10 74q23 80 80 100l18 25l-6 6v6q0 52 86 110q55 52 55 68l13 12l-7 6v7q55 47 86 124l9 7v12q-45 68 -119 68q0 28 -86 43l-31 24l-6 -6h-12q-12 0 -13 18q-84 23 -94 50z" />
<glyph unicode="&#xbf;" horiz-adv-x="1249" d="M0 -283l27 105l-11 35q27 33 35 129l105 172q10 0 51 112q45 43 61 113q190 223 250 223q0 18 62 19q59 -41 59 -164q-47 -12 -156 -78q-35 0 -34 -51q-10 0 -76 -88q-41 -88 -78 -113q-80 -156 -80 -207q-23 -25 -25 -86v-43q57 -70 95 -69h34q76 12 304 174q41 0 94 67 q23 0 35 51q49 0 155 70h27q65 0 86 -43v-35q0 -53 -70 -94q0 -31 -86 -59q0 -49 -121 -105q0 -29 -139 -121l-129 -69q-37 0 -69 -43l-33 -8l-54 8l-24 -19l-10 11v8l-33 -8q-166 0 -209 86q-12 89 -43 120zM432 1255q39 113 172 113h53q31 0 68 -164h10l-18 -35l8 -53v-6 q-23 -45 -86 -45q-106 14 -190 139z" />
<glyph unicode="&#xc0;" horiz-adv-x="944" d="M-14 -2l28 63l-8 9q35 0 80 137q29 0 66 115l6 6h8l-8 8v20q66 90 65 152q31 23 66 145q0 20 12 21l-6 8v6l65 137q0 72 35 115l43 152q0 195 74 194h78q35 0 72 -108q18 0 36 -64q16 0 23 -80q41 -78 72 -217l-9 -6v-6l66 -232v-8q0 -49 -29 -78l6 -8v-8q-6 -43 -14 -43 q0 -100 94 -100q51 -31 51 -72v-37q-66 0 -122 -106l-72 -29q-57 0 -94 80q-51 18 -52 35l9 8v6l-9 6h-6q18 106 35 117q-12 80 -35 80h-8q-35 0 -106 -66q-113 18 -123 29h-15l-102 -252l8 -23q-12 0 -28 -43l-23 -6l8 -8q-18 -172 -88 -172l-43 -14q-39 0 -92 80z M332 1712q53 86 121 109q0 29 59 34q66 72 150 115q49 57 108 80q49 72 100 72q0 12 37 14q0 49 137 74l23 6h6q72 -47 72 -115q-57 -27 -58 -51q-166 -55 -165 -100q-80 -33 -260 -201q-51 -14 -201 -211q0 -29 -29 -29q-88 23 -88 86l8 9v8q-20 43 -20 100zM438 616l8 -20 h7l51 12l8 -6q0 16 86 57l20 23l-14 86l8 43l-43 66v6l21 43l-6 8h-15q-27 0 -80 -195q-16 0 -28 -100z" />
<glyph unicode="&#xc1;" horiz-adv-x="1363" d="M0 -16q12 41 94 135q27 43 94 94q0 20 68 88l47 107l62 122q20 100 65 101l29 53l-8 21l26 26v6l-6 35q29 6 29 41q34 0 80 209q14 0 26 47h6l-6 6v6l15 62l-15 33q49 123 121 122l29 -8l39 8q23 -18 34 -102l-14 -53l6 -33l-12 -76l20 -121l-8 -20q34 -206 56 -221 l-9 -29q8 -39 35 -39l53 6q33 -25 33 -41l-6 -18h6l15 -14q-33 -55 -101 -80v-8q6 -49 33 -89q51 0 82 -100q-10 -43 -55 -88v-6l8 -6v-8q0 -23 -56 -66l-59 6l-35 -6q-6 20 -80 45q0 20 -26 35q6 76 33 108l-7 27l7 6q-14 0 -21 62l6 18h-6l-20 8l-68 -41l-18 6l-74 -26 l-41 14q-74 0 -129 -88v-12l8 -8v-7l-88 -141q-18 -6 -53 -82q-23 0 -56 -106l-26 -15l-47 15l-27 -6q-88 25 -88 86zM344 1817q49 94 115 94q16 -14 100 -21q31 -41 74 -41l6 9h8q250 -127 250 -209l33 -35l-6 -33q0 -27 32 -27l21 -26v-23q-20 0 -21 -18l7 -8l-39 -13 q-133 57 -168 109l-183 92h-108q-121 84 -121 150zM580 631h6l26 -6l21 6l35 -6q0 12 32 18l7 109q-27 0 -27 82v6h-6q-41 -33 -53 -103q-16 0 -41 -59l6 -6v-21z" />
<glyph unicode="&#xc2;" horiz-adv-x="1165" d="M106 1737q18 59 47 59q34 18 37 37q37 4 37 37q82 45 115 112l65 99l-6 16l53 43v35l55 43q117 0 181 -174q51 -35 108 -139q23 0 127 -115q12 0 41 -59l6 -7h6q-6 -61 -18 -61l6 -4v-6q0 -16 -106 -37q-49 74 -152 139q0 20 -47 47q0 22 -61 74q0 33 -35 59h-62 q-18 -68 -254 -241l-41 -25q-90 0 -90 49q-12 1 -12 19zM0 190v11q27 90 55 90q23 0 35 92q-45 72 -45 127q41 119 127 119v-11q37 0 74 130q47 25 137 391l8 8l-8 8v10q45 141 45 246l-8 27l90 55q53 0 238 -172q72 -94 161 -301q51 -59 66 -156l45 -45l-8 -8v-37l98 -475 l55 -190q-23 -59 -63 -82h-37q-45 0 -109 338q-74 187 -92 301q-39 0 -137 -111l-127 -135q-70 -20 -145 -66q-154 0 -191 -108l45 -137q0 -76 -82 -109h-18q-182 25 -182 156zM420 666q0 -20 26 -21q88 0 199 74h66q16 0 16 -45q29 0 29 -19q68 18 92 64q-129 383 -293 475 l-27 -29l19 -37q-6 -135 -55 -208h-11l11 -11v-8q-18 -18 -19 -74l-37 -90l-16 -18v-53zM1047 827v11l36 36h9v-10q-2 -17 -45 -37z" />
<glyph unicode="&#xc3;" horiz-adv-x="1003" d="M0 113q0 92 98 139q0 45 29 55l-8 35q49 68 55 113l37 6v8l-8 27l55 84l90 188q25 6 49 121q29 0 43 125q49 0 49 110l15 58l-15 55v14q0 43 70 56l6 8q113 0 113 -49q63 -119 63 -217l7 -9l-7 -55l15 -14v-21l-8 -8v-6q14 0 28 -105q55 -55 55 -104v-35 q-18 -18 -34 -139l34 -121l-6 -76v-28q34 -43 49 -105q-14 0 -28 -41q-20 0 -21 -55l-34 -29h-43q-84 41 -84 119q-20 0 -35 96q10 35 20 35q-10 72 -26 72q-10 -35 -58 -35l-96 21h-121q-61 -89 -61 -111l-49 -92l8 -21q-78 -176 -133 -176l-9 -6h-6q-23 20 -78 29z M154 1350v6q28 22 43 98l-9 6q6 57 29 84l-14 70l14 28l-14 50q111 127 153 139l21 -6l20 20h23l49 -28l6 8h6q197 -43 197 -84l84 -15q125 119 203 119q2 -12 125 -63q-20 -119 -64 -119l-90 -70q0 -23 -55 -84l-133 -26l-15 12l-26 -6q-126 40 -191 104l-47 6 q-8 -25 -72 -61l-61 -168l6 -6q-12 -121 -61 -121l-43 -26q-70 20 -70 110zM481 707l8 -9h41l93 78v6l-15 29l6 55l-26 43l-23 6l-84 -194v-14zM594 496l20 -64h15l20 49l-6 8v7l14 43l-8 6h-6z" />
<glyph unicode="&#xc4;" horiz-adv-x="1077" d="M0 1614l16 49l-16 16v43l43 41h25l41 -32h51l41 8v-8l8 8h8q16 0 16 -25l25 -8h18v8q135 -12 158 -35h8l43 11q0 -16 109 -52l41 17q0 -14 127 -33q12 -29 125 -59q47 -29 49 -58q0 -71 -68 -92l-49 -8v16l-57 -8q-18 18 -252 82q-76 -18 -76 -33q80 0 101 -125l184 -442 q0 -45 57 -51l185 160l26 -25v-35q-59 -49 -59 -108l-109 -68v-16q0 -16 41 -17l8 -8v-8q-66 -76 -65 -109l41 -176l10 -8l-10 -8q76 -215 100 -375v-10q-14 -33 -57 -33h-33q-92 66 -92 109q0 158 -127 309l-92 51l-142 -59l-24 24h-43l-66 -325q-20 -20 -100 -25l-84 84 l8 41l-8 49v27q74 92 76 133l-10 8v8q43 76 75 225q49 0 60 127l8 9h8l-8 49q6 63 24 84v67l25 82l-8 51l24 93q-25 43 -24 84l8 41l-8 59q57 57 84 57v27q-172 33 -342 33q0 14 -68 41zM184 1698h9l16 16v8h-25v-24zM276 1606h33l17 16l-9 8h-16zM401 727q45 -33 76 -33 l117 49l8 9v24q-33 39 -59 176q-25 14 -25 60l-24 16q-28 0 -93 -301zM610 477h49l27 17q-8 33 -35 32q-39 -18 -41 -32v-17zM936 811v8l25 25l18 -17q-12 -33 -27 -32z" />
<glyph unicode="&#xc5;" horiz-adv-x="823" d="M0 1208l8 97l-8 67q18 203 61 289q78 154 242 287l53 51h148q174 -20 174 -43v-62q0 -16 -27 -16l-78 16q0 -45 -53 -69l-8 10h-8l-201 -115q0 -23 -78 -112q-61 -104 -78 -252l-8 -8q18 -88 51 -88l252 112q20 37 123 96q133 119 148 156q70 25 155 96h19l16 -16v-27 q-360 -375 -399 -391q0 -43 -35 -43v-26q0 -18 51 -19v-16q-33 -45 -33 -78q92 -80 129 -148l166 105h9l26 -27v-8q-123 -166 -123 -192v-9q66 -145 107 -442q33 -147 51 -166v-166l-18 -16h-33q-113 0 -139 112l-46 228l11 8v8l-27 51l8 11q0 23 -53 34q0 33 -16 33 q-59 0 -97 -51l-34 8l-33 -8h-19l-43 35l-34 -225l8 -11v-8l-8 -43q0 -66 34 -113v-69l-45 -35q-123 0 -172 104l-10 9l10 26l-10 43v27q37 37 37 88h6l-16 78q33 90 53 338l8 8v8l-8 37q35 145 35 233q-109 0 -140 113q-30 10 -61 96zM297 721l6 -27h10q164 43 164 115 q-61 113 -121 113zM565 573h8v19h-8v-19zM670 1329v8h16v-8h-16zM694 1356v10l107 113l8 -11v-8q0 -15 -104 -104h-11z" />
<glyph unicode="&#xc6;" horiz-adv-x="1646" d="M0 168l115 115q0 35 59 55q51 123 102 139l74 141l-8 21q0 14 43 41q0 31 39 61q0 33 35 68l-8 27q29 111 102 206q0 55 27 82l-9 6v9l47 147l-6 27l27 155l47 39h47q47 -18 47 -94q18 -12 29 -47l65 -6l74 26v-6l8 6h21l53 -14q41 0 80 29h29l26 -21l133 27 q82 -29 97 -74v-12q-37 -82 -170 -82l-160 -61l-8 8h-6q-27 -23 -95 -29q-16 -20 -120 -59q-35 -35 -35 -56l8 -6v-6l-8 -20q8 -53 47 -54l217 -8l4 8h8l6 -8l197 21q102 -35 106 -54q0 -14 -73 -79h-6l-9 6q-119 -61 -168 -62l-126 -18l-74 6q-115 -66 -115 -115 q33 -57 121 -82v-12q-22 -74 -74 -74l-35 -47q14 0 15 -20h20q184 28 277 67v-8l159 55l9 7l39 -15l40 29q33 0 56 -76v-6q-83 -129 -209 -129q0 -33 -68 -33q-96 -66 -155 -73q-106 -49 -162 -136q-53 -53 -80 -53l-35 -6q-43 0 -115 115q-18 0 -32 39l6 26l-12 41 q12 2 59 76l-6 4l6 47v23l-12 12l-21 -6l-26 6l-121 -12l-56 6q-131 -154 -153 -271q-14 0 -29 -65q-86 -82 -133 -82h-6q-70 47 -70 74h8zM512 666q33 0 33 -13l35 6h94v56q-55 113 -56 180q-33 0 -47 -86q-29 -41 -47 -102l-12 -15v-26zM633 956h12v7h-12v-7z" />
<glyph unicode="&#xc8;" horiz-adv-x="1257" d="M0 489l14 56l-8 26l8 27l-8 55q14 0 14 33l7 8h8l-8 21l14 26l-14 47l8 23l-8 27l20 18v8l-6 33q18 104 61 166q0 61 95 106q16 31 143 105h14l6 -8h7q0 10 49 34h123l39 7l28 -7l6 7v6l21 -6l76 6l18 -13h61q76 -51 76 -81v-76q-12 -76 -76 -76q-63 51 -114 55h-56 q-14 -14 -73 -20l-246 -88l-6 8h-6q-25 0 -49 -76q-33 -18 -33 -108l12 -15h21l61 21l68 -15l122 27l21 -4l20 4l41 -4q72 20 103 39l61 -21l82 21q35 0 35 -68q-43 -123 -158 -123l-108 -55q-279 -59 -281 -74q-86 10 -100 21l-8 -6l-33 6h-14l-7 -68v-55l7 -41l-7 -33v-20 q0 -49 95 -137l67 -33q113 6 240 108l155 123q6 18 76 47q0 27 94 103q14 74 76 73q0 35 94 56q0 -14 23 -15l4 -6v-55l-18 -53l6 -8v-7q-41 -53 -41 -82q-158 -223 -305 -278q-188 -170 -240 -170l-109 -41q-52 0 -190 61q-22 0 -68 68q-29 0 -49 123q-33 0 -39 176l6 21z M231 1769v27q0 55 88 88l62 -12l20 6q43 0 97 -102q39 -6 59 -33l152 -103l94 -88l-6 -20q23 0 41 -88v-8q-31 -55 -70 -56q-41 0 -94 76l-117 88l-94 47q-2 20 -96 64l-39 -8q-82 20 -82 102z" />
<glyph unicode="&#xc9;" horiz-adv-x="1140" d="M0 399l14 23l-8 35l8 6v6l-8 23l8 63v14l-8 29l14 43l-6 8v6l15 23l-9 6v6l9 37l-9 37q14 0 23 41l-14 14v15l20 36l-6 7q6 115 20 129l-6 63v6q0 49 121 152q0 47 164 63l6 6l43 -14h51l21 14l22 -6l64 21l6 -6h8l29 6h6l166 -41q70 -84 70 -129q-37 -92 -113 -92 l-57 49h-158l-43 -15l-21 9q-215 -31 -215 -129l-20 -109l6 -27l-12 -14v-72l41 -14q43 31 137 43h43l63 35l35 -14q25 18 92 28l101 58h20q66 -12 66 -43q-45 -106 -178 -156l-207 -135q-29 -23 -158 -58q0 -10 -63 -28v-51q0 -33 43 -70q0 -45 77 -86l52 -43l6 6h14 q0 37 72 37q0 14 63 14q18 18 107 49q0 52 129 93q49 59 114 94q20 92 58 106q0 39 26 64v8q100 0 101 -66q-29 -45 -29 -63l8 -6v-8q-35 -98 -172 -256l-235 -201l-185 -72l-8 8h-6q-27 -14 -80 -14h-12q-61 39 -135 63l-58 64q0 51 -86 94q0 66 -20 84v8l6 9zM457 1690v14 q14 16 20 63q20 2 43 72q39 39 170 72q0 14 101 20q0 18 114 66l29 -8l57 20q59 0 72 -78q0 -74 -123 -98l-12 -14h-8l-9 6h-6q-55 -57 -78 -58l-8 9h-6l-143 -115q-35 -20 -72 -72l-35 -20q-29 31 -86 35z" />
<glyph unicode="&#xca;" horiz-adv-x="1011" d="M-285 1714q18 59 47 59q34 18 37 37q37 4 37 37q82 45 115 112l65 99l-6 16l53 43v35l55 43q117 0 181 -174q51 -35 108 -139q23 0 127 -115q12 0 41 -59l6 -7h6q-6 -61 -18 -61l6 -4v-6q0 -16 -106 -37q-49 74 -152 139q0 20 -47 47q0 22 -61 74q0 33 -35 59h-62 q-18 -68 -254 -241l-41 -25q-90 0 -90 49q-12 1 -12 19zM0 815l14 47v62l-6 30q6 78 23 78q-12 84 -23 84l6 55v29l-14 64v8q0 35 39 59q0 86 61 139h39q61 -40 62 -122l14 -17q178 20 309 64l115 30l23 -8q0 23 139 45q0 -16 86 -59l14 -55q-20 -76 -61 -76l-363 -117 q-188 -53 -246 -53v8q-55 -12 -55 -92l8 -25l-22 -106l22 -33h92l123 16h47q35 27 179 84h14l31 -8l69 33l47 -16l62 30l14 17l25 -25l-25 -22l8 -39q-27 -57 -131 -115q-63 -88 -323 -154l-185 -47h-69q-16 0 -17 -22q0 -55 17 -56l-8 -36v-86q55 -168 131 -168l55 6v-6 q135 39 276 184l76 84q0 33 117 139q18 61 53 84l17 31l36 -6h9q0 23 47 53h22l17 -16q0 -172 -140 -316q-18 -92 -192 -293q-66 -88 -254 -176l-53 -8q-279 0 -340 399v9l8 8l-25 100l9 70l-9 47l9 6v8q-15 18 -23 168z" />
<glyph unicode="&#xcb;" horiz-adv-x="1212" d="M0 655v41l6 9l-6 6v8q12 55 29 61l-29 92l14 15l-8 6v6l23 49l-23 41l23 98l-9 43q37 63 175 64v-8l20 8l43 -8l229 55l29 -6l6 27q-68 45 -110 127v34l20 70l-6 6h-8q-133 -133 -174 -133l-64 -6q-15 0 -61 49q-20 0 -21 14v50l6 26l-6 29q2 41 15 41l-9 8v12 q0 20 56 29l49 -14l20 20q176 -37 177 -96l26 -15q51 20 70 50l49 -9l78 15q0 -20 26 -21q43 -53 70 -118v-15q0 -68 -131 -104l-14 -64q111 -55 131 -151q-29 -72 -56 -84h-26q-29 0 -58 26q-94 0 -174 -20l-49 6q0 -33 -119 -41q-49 -70 -49 -96q0 -39 43 -78l-8 -21h8 l84 27l35 8l20 -14l9 6h14q12 0 12 -20h29q37 0 90 28h41l84 6l49 -49v-6q0 -94 -194 -160q0 -25 -105 -43q-27 -27 -162 -61l-41 -29l-8 -20l15 -35l-7 -8v-6q0 -39 64 -105v-8l-8 -6q0 -41 63 -55l21 -23h14q18 25 131 49h29q0 27 49 35l35 29q0 41 78 57q4 35 96 88 q0 18 112 121q0 40 50 55q34 0 55 -55q-20 -33 -21 -127v-6q-154 -188 -168 -189q0 -27 -110 -92q-68 -88 -260 -180h-105q-68 0 -139 70q0 12 -35 28l-35 47l-6 64l6 29l-34 26v15l8 8q-57 184 -58 215v8l9 47q-6 69 -29 98z" />
<glyph unicode="&#xcc;" horiz-adv-x="567" d="M-225 1604v6q0 49 108 102q86 0 117 -76q14 0 39 -45l102 -57q16 0 39 -27q49 0 180 -92q53 -12 54 -82q-55 -6 -84 -47l-27 -12q-20 20 -78 33l-24 -7l-129 66q-115 27 -168 96q0 18 -27 19q-75 62 -102 123zM6 164l6 45v12l-6 27l27 78l-6 51l12 39l-6 39l6 6v8l-6 4v8 l18 129l-12 76l6 33l-18 39v26l12 19v51l-12 20l12 25l-21 53l21 27l-6 25l6 32l-6 19q25 66 78 65q41 0 108 -84l-6 -20l6 -58l-18 -59l6 -18h-6l6 -7v-6l-6 -39l6 -59q-14 0 -21 -84l9 -70q-16 0 -27 -59q12 0 18 -31q-18 -2 -18 -53l12 -57q-6 -51 -18 -66v-24 q0 -14 51 -33l12 -72l-84 -153q-14 -45 -24 -45q-98 0 -99 129z" />
<glyph unicode="&#xcd;" horiz-adv-x="567" d="M0 1446l14 37l-8 35q16 0 43 57q20 49 51 63l35 -8q115 29 221 94q59 0 207 93v8l29 -8q29 0 70 28h16q121 -35 121 -78l-15 -43l7 -8v-12q0 -29 -129 -57l-127 -66q0 -33 -115 -49q-43 -66 -115 -66q-84 -141 -170 -141h-8q-45 0 -84 84q-18 0 -37 37h-6zM43 1004 l49 100l43 14l6 -8l43 31h15l65 -72l-8 -37l8 -28l-14 -35l6 -64v-14l-6 -8l14 -29l-8 -6v-6l29 -101q-6 -43 -15 -43l66 -393q12 0 43 -84l-17 -22l9 -6v-23q-43 -164 -92 -164l-9 -6h-28q-51 20 -84 72l-23 63l6 6v9l-6 28l15 21l-23 51l8 49l-8 43q23 0 23 72h8l-17 43 l17 20q-31 143 -52 144q6 49 15 49l-35 149l6 6l-6 37v49l6 9v6l-35 63z" />
<glyph unicode="&#xce;" horiz-adv-x="567" d="M-233 1198l6 23l-6 6v6l6 43l-6 33q172 88 172 151q29 0 47 76l-6 18l32 91l-6 6v8l6 6v6l-6 29l82 61h6q68 0 160 -110q45 0 59 -27q45 -41 64 -41l18 6q0 -12 97 -67l83 -82h7v-49l6 -33q-66 -72 -117 -78h-20q-37 28 -123 55l-15 15h-32q0 27 -41 26q-29 63 -82 64 q-84 -55 -84 -152q-10 0 -54 -90l-116 -102h-15l-6 8l-8 -8h-47q-12 0 -35 41q-20 0 -26 61zM61 117v6l13 29l-13 26l7 29l-7 6v6q41 37 41 103l-14 49q14 0 14 20l-14 41l14 41v14q-20 27 -20 54q12 0 12 34h8l-20 50l12 32l-6 9v6l6 26l-12 21v35l6 26l-20 70l14 76 l-21 123l27 26l-6 8v7q0 43 53 75h8l33 -20l23 6l55 -76l-14 -53q10 -70 18 -70q-6 -96 -18 -96l18 -143l-12 -97l8 -102q-16 0 -23 -70l9 -32l-9 -9v-6l9 -26l-9 -9q20 -88 76 -88l29 -61l-49 -102q-47 -8 -47 -84q-41 -16 -41 -27q-138 21 -138 117z" />
<glyph unicode="&#xcf;" horiz-adv-x="567" d="M-51 1587q14 0 35 137q0 25 116 56h9q46 -15 86 -129l-7 -35l7 -62q-8 -82 -68 -81l-6 -7l-6 7v6l-33 -6q-37 0 -86 55q-45 0 -47 59zM43 109l39 108l-6 29q18 20 18 47v35l-12 20v21q53 49 53 129v82l6 6l-14 41l20 67l-6 64v26l27 88l-6 89l18 81l-6 9v6 q27 190 107 190l79 -61q-12 -176 -47 -252q-6 0 -18 -47l4 -21l-25 -49l7 -18l-7 -41l7 -8v-7l-7 -26l7 -35q0 -43 -33 -82l6 -20l-12 -68l6 -29q-14 -18 -15 -73h-6q12 -51 68 -91l-21 -79l7 -9v-6l-74 -143l6 -21l-25 -41q-20 -20 -67 -20q-18 0 -45 47q-31 1 -33 62z M399 1616q0 117 113 164q76 -37 100 -70l19 -59l-6 -29l6 -27q0 -123 -107 -149h-6q-84 47 -86 82z" />
<glyph unicode="&#xd1;" horiz-adv-x="1030" d="M0 -20q0 49 25 112v51q0 12 24 13l14 24l-8 6v7q57 37 58 131l37 51l-7 24q14 4 27 31l-6 39l24 137l-14 25l27 51v25l-6 18l12 106q0 29 -43 125l-8 25q0 98 100 119h39q12 0 24 -43q25 0 31 -58q29 -4 49 -137l113 -319q41 -45 82 -174h12q18 0 45 137q31 0 31 55 l25 12v45q31 68 30 113l15 12l-7 7v6l31 118l-12 150l12 12l-18 58l6 24l-6 51q3 111 49 111q0 20 18 20q29 -25 101 -30q12 -12 18 -115l-18 -31l6 -43l-6 -37l6 -8v-6q-16 0 -55 -268l6 -6q-8 -88 -27 -88l8 -6v-7q-37 -43 -39 -106l6 -19l-94 -294l8 -56q-45 -18 -45 -69 l-55 -62h-27q-68 25 -124 76l8 4l-33 127l6 6v6l-67 119l6 25q-27 0 -39 75q-29 61 -62 74h-6l-39 -61l15 -58h-9l9 -6l-9 -43v-69q-29 -29 -61 -156q-12 0 -33 -143q-43 -96 -92 -119q-57 25 -88 67v7zM274 1350l9 18l-9 6v8q61 172 95 195q25 4 45 61q55 8 55 74 q49 63 82 64h12q45 0 94 -88l101 -111l61 -8q0 20 107 69l6 7l12 30q53 0 125 76h6q82 -18 82 -76q18 0 19 -12q0 -33 -68 -94q0 -31 -64 -62q-20 -49 -137 -112q0 -10 -55 -21q0 -20 -76 -31q-72 6 -143 64q-35 68 -70 68q-61 -20 -61 -68q-35 -35 -82 -131l-51 -33 q-68 1 -95 107z" />
<glyph unicode="&#xd2;" horiz-adv-x="997" d="M0 342l20 41l-14 35l29 41l-8 47l49 110l-8 7v20l96 254q8 41 90 129q47 53 47 84l123 82l111 18v-6l6 6h26q131 -18 131 -53q41 0 115 -233l14 -74h-6l15 -49l-23 -56q29 -10 29 -20l-62 -240q-20 -47 -41 -47l-49 -108q-176 -201 -272 -254q-104 -76 -234 -76 q-90 59 -108 88q0 25 -41 90q0 41 -21 41l6 35v6q0 59 -20 82zM143 397l15 -14l-6 -41q12 -14 12 -76q53 -41 90 -47l6 6q4 16 111 41q4 16 53 35q102 109 102 129l138 186q18 113 41 129l-15 41l8 64v6q-18 80 -49 117v41q-20 0 -47 26h-20q-20 0 -21 -49q-29 -47 -55 -47 q0 -27 -27 -26l-49 6q-104 0 -156 -103l7 -35v-6q-72 -63 -88 -149h-15v-49l-14 -56l6 -32q-21 -1 -27 -97zM330 1800v6q2 55 53 56q6 27 76 26q51 -49 108 -178l90 -102q15 0 111 -123l-8 -35l20 -82q-10 -12 -61 -12q-10 -35 -21 -35h-14q-41 41 -88 61q-125 129 -125 144 q-86 135 -109 151z" />
<glyph unicode="&#xd3;" horiz-adv-x="923" d="M0 401q0 84 41 131l20 35l-14 21v35q74 193 113 192l-8 23l55 75q18 0 35 117q49 55 75 55l76 15q45 -35 119 -35q158 -150 186 -256q14 0 15 -41q14 0 20 -70l6 -6h9l-9 -20l9 -99l-9 -34l9 -41v-15q0 -78 -195 -288l-160 -140l-131 -49l-49 -6q-86 23 -152 61l9 23 q-14 0 -35 137l-29 35l14 41v29q0 75 -20 75zM152 346q0 -80 61 -96l8 -8h6l15 14h14l6 -6q131 33 131 76q45 29 105 125q55 41 55 81q29 0 35 35l-6 35l14 62q-12 29 -23 28l9 41q0 68 -70 96l-35 -61l6 -6v-8q-8 -41 -20 -41h-6l-90 49q-72 0 -125 -119q-27 0 -70 -174z M291 1466l166 207q0 31 145 76q22 22 172 55l41 -20l8 8h29q27 -12 27 -49t-27 -55l6 -7v-20q0 -14 -49 -14q0 -12 -180 -105q0 -41 -47 -41q0 -14 -70 -125q0 -45 -55 -96h-105l-26 12v43l-23 41l14 29l-14 33l8 8z" />
<glyph unicode="&#xd4;" horiz-adv-x="989" d="M0 352l33 80l-6 80q27 59 26 92q41 96 53 166q72 94 72 127q41 31 68 113q66 78 198 112h9q86 -31 198 -92q28 0 74 -74q14 -2 66 -133q14 0 14 -26h-8l20 -78l-12 -21l12 -41l-12 -71l6 -56q-20 -59 -127 -178v-12q20 0 21 -14v-15l-154 -166q-72 -66 -113 -65 q0 -18 -86 -47q0 -8 -112 -27l-7 -6q0 14 -106 33q0 29 -35 73l8 27q-68 0 -67 146zM139 465l15 -66l-9 -20q14 -23 15 -86l59 -80q47 0 160 66q66 76 139 106q0 18 60 86l26 53q37 31 68 187l6 8v6q0 20 -27 45q0 72 -65 100l-35 -20h-12q-47 59 -127 59q-41 0 -68 -32 q-47 0 -92 -107q-34 0 -74 -160q-27 -145 -39 -145zM172 1374q25 100 47 101q14 0 14 32q66 29 66 41l53 54q0 27 21 38q0 49 53 134q0 53 66 53q18 0 151 -121q31 0 221 -170q16 -59 45 -88l-71 -86l-80 12l-39 -12q-6 27 -121 92q-45 0 -68 53l-6 9h-6q-76 -45 -112 -134 q-18 0 -101 -106q0 -14 -33 -14h-6q-61 34 -94 112z" />
<glyph unicode="&#xd5;" horiz-adv-x="909" d="M0 1276q0 27 31 92q0 27 12 27l20 -6v6q51 43 125 131q55 0 74 61l-6 27q16 37 70 74q25 0 49 24h6q55 -49 119 -74q55 -88 106 -88h49q61 29 88 88q27 0 76 31l6 -6h6l58 18q16 0 43 -57v-55q-35 -84 -176 -201q-28 0 -68 -49l-39 -6h-37q-113 33 -112 55q-4 23 -56 45 q-6 23 -38 37h-37q-70 -39 -125 -156q-27 0 -74 -57q-72 -43 -127 -43l-31 49q0 33 -12 33zM18 299l21 70q-20 37 -21 75q0 25 13 25l-13 86q12 0 13 39q33 0 69 137l-6 43q31 0 49 57l113 156l82 37l61 8l95 -33l36 9v-9l58 21l24 -6l6 6h7q66 0 139 -100l10 -52h-6 l45 -125l-12 -36v-25q14 -8 18 -113q0 -70 -88 -213l-49 -51l6 -6q0 -82 -49 -111l-51 -51l-19 6q0 -57 -149 -118q-39 0 -82 -25l-39 12l-43 -6q-102 27 -119 70q-18 0 -18 24l-49 43q0 49 -27 70q0 37 -25 86zM131 393l19 -55l-7 -19q61 -145 138 -145h32l107 39 q0 16 55 25q70 106 80 106q2 20 39 43l18 33l6 -6h7q20 0 45 67l6 6l-12 76l12 68q-12 0 -21 24l15 45l-15 64l15 10l-58 76l-57 12l-10 -12v-6l6 -31l-45 -39h-37l-55 64h-8q-45 0 -93 -31l-8 6h-6l-18 -6l8 -33q-72 -66 -139 -219l6 -31l-25 -94l6 -4v-6zM481 299v6l6 8h7 l6 -8v-6l-6 -4h-7z" />
<glyph unicode="&#xd6;" horiz-adv-x="1286" d="M0 1389v32q0 104 82 131q113 66 420 115q53 0 123 35l41 -19l335 66h41l25 -14h8l92 8q16 0 99 -101q0 -61 -123 -81q0 -45 -297 -148l-139 -24v8l-107 -33q74 -55 74 -74q125 -47 237 -229q29 0 109 -273l-8 -32q47 0 55 -262l-6 -33l6 -35q-18 0 -115 -129 q0 -98 -188 -231q-88 -66 -156 -66q-147 57 -147 115q-90 137 -90 237q-14 0 -27 60l8 41l-8 57l8 33l-8 49q6 147 18 147l-10 9q18 188 82 346q66 164 125 163q-18 57 -98 58l-41 16l-58 -8h-73l-68 -49h-82l-8 8l-8 -8h-8q-115 35 -115 115zM526 426q8 -88 74 -88 q123 70 205 287q18 0 41 98q0 135 -66 197q-10 133 -41 133h-8q0 -53 -115 -125q-31 -18 -57 -279l-16 -74q-16 0 -17 -49l9 -65z" />
<glyph unicode="&#xd8;" horiz-adv-x="1601" d="M0 412l31 47q-31 55 -31 94q12 0 23 80q29 47 61 227l45 135q47 43 100 142q37 0 45 55l140 127q20 0 98 78q86 68 207 110q78 0 207 -77l67 30q84 -29 221 -102l48 8l38 -41v-14l-8 -39l70 -230v-8l-8 -8v-8l22 -64l-22 -61l8 -8l-8 -135v-25q-59 -180 -207 -346 l-146 -125q0 -16 -190 -152q-135 -76 -221 -94l-39 8l-45 -16l-33 16l-6 -8h-8l-45 25l-31 -8l-16 14h-68q-98 80 -193 80q-92 82 -92 180l17 47zM168 520q18 -70 39 -69q59 47 84 47l14 -17h17q57 0 145 94q0 45 59 80q68 113 148 158l76 55q8 35 61 72q0 78 98 86 q49 127 115 127q0 39 31 39q0 63 -54 63h-30q-35 -47 -62 -47v-32q0 -45 -53 -86q-39 0 -98 102q-39 27 -39 63l-45 9q-113 0 -238 -111l-106 -119q-20 -10 -92 -157l22 -9v-22q-29 0 -61 -64l8 -41q-23 0 -39 -116l8 -9v-24zM406 276q14 0 14 -22l31 -16l8 8h47l45 -17 l67 31v-6q68 37 168 61l56 39h53q0 25 23 25q0 31 45 63q0 52 122 111q25 25 39 94q76 39 76 174l-6 8v9l14 174q-25 74 -47 78h-14q0 -16 -115 -127q-162 -199 -162 -222q-70 0 -151 -180q-53 0 -53 -49l-207 -188z" />
<glyph unicode="&#xd9;" horiz-adv-x="1478" d="M0 643l14 74l-8 20l23 15l-6 8v100l14 14l-8 9q0 76 37 114l20 37l-6 35q12 0 49 59l66 7q39 -12 65 -72v-14l-65 -209q0 -45 -21 -45l14 -129l-28 -29v-8l14 -43l-14 -43l43 -174q20 -115 86 -115l22 -8q68 15 209 160q66 25 66 77q29 33 28 74q34 0 43 123 q43 29 66 143l29 88l8 35l-15 43l7 23q0 20 -101 151q-16 18 -22 74q23 0 100 72l37 -9l51 9l43 -43l-6 -9v-6q37 -72 57 -317l-8 -23l8 -28q-18 -43 -28 -43l6 -23l-6 -29l6 -22q-49 -92 -49 -254q-135 -236 -168 -258q-100 -70 -129 -137q-84 -51 -109 -51l-8 -9 q-41 -14 -66 -43l-57 -14h-14q-41 0 -172 109q-31 0 -31 14v6l14 16l-14 66l8 20q-37 0 -51 158q-29 35 -29 66v22zM160 1657q14 53 63 92l37 14q88 0 137 -71q70 0 109 -129q14 -6 57 -117h23v-6l-15 -23l7 -8v-6l-43 -131l-23 -15q-135 88 -135 138q-12 0 -31 51 q-186 137 -186 211z" />
<glyph unicode="&#xda;" horiz-adv-x="1003" d="M0 565v33l33 53v15l-13 18l33 172l-14 39v20q39 139 74 158l32 12h7q86 -31 86 -116q0 -94 -101 -312l8 -18l-8 -74v-39l8 -26l-14 -60q35 -82 47 -170q18 0 45 -32l47 -15q6 18 78 47q0 20 53 21q207 145 232 229l39 86v6l-6 33q12 0 12 33h6l-6 6v6l12 53l-6 27l6 41 l-12 18l6 33v6q-39 78 -51 158q-92 31 -92 92v27q0 14 18 14q0 37 74 72h33q78 -27 77 -92l48 -152l-9 -6l33 -113l-4 -24l18 -205q0 -74 -32 -119l6 -39l-12 -14l6 -6v-6q-72 -211 -119 -211q-41 -31 -92 -113l-137 -72l-9 -6h-6l-39 6q-43 -47 -80 -47l-12 -12h-6 q-33 33 -59 33q-27 -4 -27 -13q-49 0 -80 52q-33 0 -111 151v21l13 12l-13 106h7l-15 60l8 27l-14 32l6 72zM291 1389q29 20 71 145q45 27 46 72l53 73q18 14 39 66q20 14 41 65q29 0 57 54l35 -15l12 15h21q63 -74 116 -92v-15q0 -86 -110 -86l-113 -164q0 -14 -33 -39 l-26 -38q-41 -166 -78 -166l-27 -7q-72 6 -71 60q-17 0 -33 72z" />
<glyph unicode="&#xdb;" horiz-adv-x="1054" d="M0 592l6 18l-6 72l12 10v8l-6 37l12 27l-12 12v33q20 47 27 154q-20 0 -21 14v12l15 12l18 -6v6q0 37 102 52h33q29 0 33 -135q-45 -143 -45 -199l-6 -6l-8 -21l14 -51l-14 -63l8 -25l-8 -6v-8q8 -61 45 -127v-45q47 -141 84 -142l51 -8l115 66q0 25 122 135l52 76l-7 8 v6l58 94l-6 39v6l14 21v39l-14 18v12q0 33 14 33l-8 33l8 39l-20 18v12l20 21q-45 78 -45 154q25 102 100 102q66 -61 66 -102l24 -39l-6 -31l21 -96l-6 -9v-6l6 -39v-6l-6 -39l12 -37v-14l-6 -39l18 -30v-25q-25 -27 -24 -53l12 -37q-29 -74 -39 -162q-123 -150 -207 -223 q0 -12 -49 -45q0 -25 -90 -60q-31 -57 -141 -57q-53 0 -160 57q-43 47 -72 111l6 18q-18 0 -18 70h6q-39 104 -39 135l6 21q-20 72 -39 90v12l6 6l-6 6v6l15 27q-13 29 -27 33zM27 1470q0 57 145 103q0 20 90 51q8 41 60 129q0 96 108 96q55 -78 162 -123q211 -168 211 -180 q0 -45 -72 -100q-162 0 -205 55h-6l-33 -6q0 27 -57 39q-10 0 -102 -102q-145 -70 -181 -70q0 -14 -75 -14q-20 18 -21 59l-18 12l6 6v21z" />
<glyph unicode="&#xdc;" horiz-adv-x="1099" d="M0 672l6 26l-6 41l14 13l-8 26l21 35l-7 6v21l7 34l-21 82l8 21l-8 6q10 68 21 68l-13 41q0 14 33 14q47 35 47 65l8 9h7q41 -12 67 -47q29 0 47 -82l6 -7l-18 -20l6 -29l-41 -147l6 -35l-32 -108l6 -27l-15 -35l15 -41v-6l-6 -27l47 -129l-7 -32q0 -23 39 -76 q20 -94 97 -94l6 -9h8l18 15l35 -6h15q152 31 215 81q117 129 116 150q35 82 80 127l-6 6v8l6 62l-6 18l21 8v27l-21 82l6 20q-27 229 -129 230v14l35 39l-6 8v62q0 49 53 100h35q94 -66 121 -94v-6l-6 -9v-6q27 -63 41 -147l20 -23l-6 -26l18 -162l-12 -29l12 -65l-12 -49 l6 -115h-6l6 -6v-15l-67 -155q0 -35 -144 -197q0 -18 -65 -53q0 -43 -267 -123l-32 6h-62l-6 8l-67 -14q-74 0 -164 109l8 26q-53 102 -76 217h-6l6 47v21l-12 41l6 41q-16 18 -27 88l-8 6v47zM115 1559l20 40l-6 56l35 47l-14 59q53 29 88 29h20q53 -6 115 -102l-27 -103 l6 -6v-6q0 -70 -94 -109q-68 0 -117 74q-26 1 -26 21zM434 1720v9l47 79l47 15h82q16 0 33 -74l-6 -6q14 0 35 -49q18 0 18 -21q0 -135 -80 -135q-35 0 -35 -12q-106 14 -106 33l12 14q-27 29 -26 59l6 8q-27 0 -27 80z" />
<glyph unicode="&#xdd;" horiz-adv-x="1030" d="M0 1114q16 57 68 80h67q88 -61 88 -94q92 -39 215 -236l41 -20h21q10 0 55 82q33 0 33 65l6 8q0 20 35 27l12 27v20l-6 35q27 0 121 127q39 0 61 -41q35 0 35 -45v-41q0 -18 -96 -156l-88 -176l14 -26q0 -61 -100 -150q-96 -145 -97 -180q-12 0 -12 -41 q-82 -106 -82 -164l21 -65q0 -27 -62 -103q-29 -47 -127 -47l-67 68v20q18 61 41 62q51 74 73 188q25 0 74 135q14 0 14 47q23 6 33 47l-6 41l6 6v7l-26 47q-27 0 -27 41q-35 12 -35 61q-12 0 -188 195q-109 31 -109 122zM276 1303v47q76 211 150 249q0 25 141 136h21 q53 -4 88 -54q27 0 26 -41v-26q-43 0 -108 -135q-14 0 -82 -95h-12q0 -37 -115 -122h-27q-82 23 -82 41z" />
<glyph unicode="&#xdf;" horiz-adv-x="1716" d="M0 59q0 53 39 144l125 59h18l8 -6l84 18q6 -29 35 -51l19 6l20 -14l39 14l33 -6q229 125 303 301l-53 39l-6 -6l-125 21h-9l-24 -15l-27 8l-78 -26l-32 6l-33 -12l-41 12l-27 -6l-45 18l-59 -6q-131 70 -137 133l12 45l-6 6v9l20 69v8l-14 21q12 47 98 158l60 84 q0 33 39 32q27 35 32 78l33 8v6l-6 7v6q61 18 92 73h39q0 53 98 72q0 6 80 39l19 -6q27 12 26 18q139 -23 139 -90l13 -59l-51 -152q-41 -66 -86 -65l-7 -6l-73 65v6l6 6l-6 9v30l6 9l-12 18l-39 -12h-9l-6 6q-70 0 -116 -66q-63 -20 -86 -78q-14 -39 -54 -38l-65 -140 l-33 -104q12 0 12 -21q78 -16 101 -45h32l93 21l32 -15l21 21l24 -14l45 8l27 -8l14 14h33l72 6q43 -27 119 -39q0 -33 45 -33l32 -86l-12 -41v-59q-63 -90 -98 -170q-25 0 -92 -78q-84 -72 -99 -71q-147 -98 -196 -99q-76 -53 -164 -53l-8 6l-33 -6h-18q-152 22 -152 59z M887 158v18q41 193 119 193q0 12 155 24q16 35 119 53q0 14 39 15q6 25 104 78q0 14 62 65l10 45h-4q-57 31 -303 60q-47 0 -164 104q-33 41 -33 66h6l-6 8v6l6 39l-6 20l74 125q82 131 123 131q59 84 86 84l-6 8v7l18 18l53 -12q0 45 146 86q0 -18 84 -33l12 -33v-41 l-27 -32l9 -33q0 -31 -164 -39q-158 -109 -191 -152q0 -20 -32 -51l-21 -47q0 -39 53 -39l27 -27l25 7l14 -25h6q166 0 381 -86l27 -51l-15 -41l15 -12v-7q-27 -27 -27 -47l6 -6v-6q-51 -66 -51 -98q-25 0 -125 -107h-35q0 -31 -221 -131l-80 -51q-49 -57 -86 -59l-39 6 q0 -20 -110 -21q0 14 -27 15z" />
<glyph unicode="&#xe0;" d="M0 -16q12 41 94 135q27 43 94 94q0 20 68 88l47 107l62 122q20 100 65 101l29 53l-8 21l26 26v6l-6 35q29 6 29 41q34 0 80 209q14 0 26 47h6l-6 6v6l15 62l-15 33q49 123 121 122l29 -8l39 8q23 -18 34 -102l-14 -53l6 -33l-12 -76l20 -121l-8 -20q34 -206 56 -221 l-9 -29q8 -39 35 -39l53 6q33 -25 33 -41l-6 -18h6l15 -14q-33 -55 -101 -80v-8q6 -49 33 -89q51 0 82 -100q-10 -43 -55 -88v-6l8 -6v-8q0 -23 -56 -66l-59 6l-35 -6q-6 20 -80 45q0 20 -26 35q6 76 33 108l-7 27l7 6q-14 0 -21 62l6 18h-6l-20 8l-68 -41l-18 6l-74 -26 l-41 14q-74 0 -129 -88v-12l8 -8v-7l-88 -141q-18 -6 -53 -82q-23 0 -56 -106l-26 -15l-47 15l-27 -6q-88 25 -88 86zM344 1817q49 94 115 94q16 -14 100 -21q31 -41 74 -41l6 9h8q250 -127 250 -209l33 -35l-6 -33q0 -27 32 -27l21 -26v-23q-20 0 -21 -18l7 -8l-39 -13 q-133 57 -168 109l-183 92h-108q-121 84 -121 150zM580 631h6l26 -6l21 6l35 -6q0 12 32 18l7 109q-27 0 -27 82v6h-6q-41 -33 -53 -103q-16 0 -41 -59l6 -6v-21z" />
<glyph unicode="&#xe1;" d="M-8 -2l28 63l-8 7q35 0 80 137q29 0 66 114l6 9h6l-6 8v20q66 90 65 152q33 23 66 143q0 23 12 23l-6 6v8l66 135q0 74 34 117l43 152q0 195 72 194h80q35 0 72 -108q18 0 37 -66q14 0 20 -80q45 -86 74 -215l-8 -6v-8l65 -232v-6q0 -51 -29 -80l7 -6v-8q-6 -43 -15 -43 q0 -100 94 -100q51 -31 52 -72v-37q-63 0 -123 -108l-74 -29q-55 0 -92 80q-51 18 -51 37l8 6v8l-8 6h-7q18 106 35 117q-12 78 -35 78h-8q-35 0 -106 -66q-111 18 -123 31h-14l-103 -252l8 -23q-14 0 -28 -43l-23 -8l8 -8q-18 -170 -88 -170l-43 -14q-41 0 -92 80z M338 1710q53 86 121 109q0 31 57 36q63 70 152 115q47 53 108 78q51 74 101 74q0 12 36 14q0 47 138 72l20 8h8q72 -47 72 -117q-57 -27 -57 -51q-166 -55 -166 -100q-80 -33 -260 -201q-53 -14 -201 -209q0 -29 -29 -29q-88 23 -88 86l8 9v6q-20 43 -20 100zM444 616l9 -22 h6l51 14l6 -8q0 18 86 59l23 21l-15 88l8 43l-43 63v9l21 43l-6 8h-15q-27 0 -79 -197q-16 0 -29 -100z" />
<glyph unicode="&#xe2;" d="M0 47v51q78 115 100 115q27 0 93 121q53 78 63 78l-14 26q0 29 86 144q0 23 34 71q0 35 35 58l-6 6v8q43 92 49 170q53 55 121 242v57l-12 55q20 18 20 58q49 31 93 36q113 -39 112 -186l43 -127l-6 -6v-8l14 -58v-43q14 0 29 -184h-6l6 -6l-6 -72v-43l20 -129l-14 -49 l6 -29h-6l35 -141l8 -57l-8 -49l8 -9v-6l-37 -80l-29 -6q-141 12 -141 86l-20 72q29 59 35 113l-23 20v14l23 29q-10 29 -23 29h-12q-61 -23 -101 -84q-45 0 -77 -43l-107 12l-14 -12l-9 6h-6q-33 -102 -71 -135l-58 -121l9 -6v-8q-27 -84 -158 -84q-58 53 -78 104z M227 1507q27 133 78 162q100 49 101 129q29 0 71 121h15l-9 37q29 29 29 55q31 43 92.5 43t149.5 -72q23 0 86 -84q170 -115 170 -186q12 0 37 -133q-45 -57 -78 -57q-94 0 -95 49q-31 0 -204 184h-15q-45 -25 -192 -242q-37 -86 -86 -86q-33 0 -49 -14h-43q-10 0 -29 57 q-29 17 -29 37zM512 610l23 -14q86 6 141 35l14 86q-23 213 -51 213h-6q-15 0 -49 -92q-29 -47 -29 -86l-6 -7q0 -20 -14 -20l6 -8v-23z" />
<glyph unicode="&#xe3;" d="M0 113q0 92 98 139q0 45 29 55l-8 35q49 68 55 113l37 6v8l-8 27l55 84l90 188q25 6 49 121q29 0 43 125q49 0 49 110l15 58l-15 55v14q0 43 70 56l6 8q113 0 113 -49q63 -119 63 -217l7 -9l-7 -55l15 -14v-21l-8 -8v-6q14 0 28 -105q55 -55 55 -104v-35 q-18 -18 -34 -139l34 -121l-6 -76v-28q34 -43 49 -105q-14 0 -28 -41q-20 0 -21 -55l-34 -29h-43q-84 41 -84 119q-20 0 -35 96q10 35 20 35q-10 72 -26 72q-10 -35 -58 -35l-96 21h-121q-61 -89 -61 -111l-49 -92l8 -21q-78 -176 -133 -176l-9 -6h-6q-23 20 -78 29z M154 1350v6q28 22 43 98l-9 6q6 57 29 84l-14 70l14 28l-14 50q111 127 153 139l21 -6l20 20h23l49 -28l6 8h6q197 -43 197 -84l84 -15q125 119 203 119q2 -12 125 -63q-20 -119 -64 -119l-90 -70q0 -23 -55 -84l-133 -26l-15 12l-26 -6q-126 40 -191 104l-47 6 q-8 -25 -72 -61l-61 -168l6 -6q-12 -121 -61 -121l-43 -26q-70 20 -70 110zM481 707l8 -9h41l93 78v6l-15 29l6 55l-26 43l-23 6l-84 -194v-14zM594 496l20 -64h15l20 49l-6 8v7l14 43l-8 6h-6z" />
<glyph unicode="&#xe4;" horiz-adv-x="1044" d="M0 1642v46q0 72 100 108q0 -20 72 -27v-8l92 8h37l227 11l119 -11l264 19l11 -8h8l10 8q63 -6 64 -19l10 11h8q66 0 100 -66v-45l-47 -63l-264 -11l-37 -16l-26 8l-183 -26l-53 8l-121 -8v8l-8 -8h-74q-131 -29 -182 -56q-127 65 -127 137zM37 293q27 45 26 90v82 q33 0 82 301l74 438l-8 37q31 90 117 90h18q311 -276 311 -354q35 -76 82 -129h9l155 92l-8 8l8 10h37l37 -36v-11q-37 -37 -37 -71l18 -19v-18q-164 -160 -163 -193q0 -74 34 -116l-8 -29l90 -309v-74q0 -70 -34 -82q-152 0 -201 365l-19 45l9 47q-18 57 -45 63h-37 l-138 -55l-81 8q0 -27 -72 -27q-47 -119 -47 -208v-74q-31 -55 -82 -55q-96 0 -127 184zM338 748l63 -56l27 21l45 -11l102 27v29q-98 199 -184 256q-31 -35 -53 -137l8 -82z" />
<glyph unicode="&#xe5;" horiz-adv-x="1007" d="M0 164l23 108l-7 25l45 53v64q14 92 72 186q18 0 39 94q90 162 117 287q29 0 39 166q0 18 -111 70q0 35 -100 133q0 70 -17 69l17 170l-8 39q0 125 147 227h41v17h131v-17h72q229 -123 264 -241q61 -46 61 -86h47v-17h78q0 -20 39 -22l8 -31q-15 -55 -55 -55 q0 -31 -22 -31h-70q0 -16 -31 -16v-15q-20 0 -47 -30q-33 -51 -78 -56q-55 -49 -55 -77l8 -31l-8 -8v-9q49 -61 86 -172l-8 -30l16 -31l-8 -8h16v14q29 0 62 33l31 -47q-12 -92 -93 -172l-16 -53l8 -9v-8q-16 -37 -16 -125v-8q0 -53 16 -86l-16 -78q12 -31 24 -31l-8 -55v-8 l8 -31q0 -74 -55 -164h-22q-49 59 -78 164h6l-31 56v38l8 31q-14 29 -14 86v47l-47 17h-39q0 20 -72 30h-94q-68 -168 -92 -436q-18 0 -47 -86l-8 -8h-86q0 15 -62 61zM311 1489q27 -94 64 -94l39 -6v-17h61v17h55v14h86q0 16 31 16v15l23 8q-41 109 -84 108l-125 103h-39 v14h-55l-56 -92l8 -39l-8 -8v-8l8 -31h-8zM350 655l103 54l86 94l-56 147h-22z" />
<glyph unicode="&#xe7;" horiz-adv-x="1024" d="M0 395l6 31l-6 35q9 0 37 123l6 8h8l-8 37l23 35l-9 36q25 0 74 160q25 94 231 277q31 63 183 166l57 36h8l23 -14l20 6q0 -20 52 -20l94 -74l28 -86l-14 -66l6 -8v-6q-29 -102 -78 -102q-84 125 -131 125q-150 -25 -153 -68q-125 -78 -189 -209q-72 -143 -71 -174 l-45 -256q70 -180 153 -180h14q43 18 43 29l-6 28l6 23q-14 0 -20 88l20 28l-6 66h6l-14 72l8 8v6l-14 37l14 43l-8 8v6q28 37 123 37q68 -33 82 -80l-37 -117l-8 -102l14 -86h-6l6 -22h31l195 131l139 -35v-23h43l28 -28v-15l-14 -22v-8q23 0 23 -15q-72 -98 -197 -137 l-145 -57l-60 -80q20 -174 68 -174q14 0 57 -72v-23l-74 -79h-51q-129 43 -129 86l-22 45q23 0 22 114l-28 23v6l6 8v6q-12 0 -43 37l-88 15l-23 -7q0 14 -78 15q-6 39 -37 63q0 27 -43 45q0 18 -28 23l-31 63v9l8 28z" />
<glyph unicode="&#xe8;" d="M0 489l14 56l-8 26l8 27l-8 55q14 0 14 33l7 8h8l-8 21l14 26l-14 47l8 23l-8 27l20 18v8l-6 33q18 104 61 166q0 61 95 106q16 31 143 105h14l6 -8h7q0 10 49 34h123l39 7l28 -7l6 7v6l21 -6l76 6l18 -13h61q76 -51 76 -81v-76q-12 -76 -76 -76q-63 51 -114 55h-56 q-14 -14 -73 -20l-246 -88l-6 8h-6q-25 0 -49 -76q-33 -18 -33 -108l12 -15h21l61 21l68 -15l122 27l21 -4l20 4l41 -4q72 20 103 39l61 -21l82 21q35 0 35 -68q-43 -123 -158 -123l-108 -55q-279 -59 -281 -74q-86 10 -100 21l-8 -6l-33 6h-14l-7 -68v-55l7 -41l-7 -33v-20 q0 -49 95 -137l67 -33q113 6 240 108l155 123q6 18 76 47q0 27 94 103q14 74 76 73q0 35 94 56q0 -14 23 -15l4 -6v-55l-18 -53l6 -8v-7q-41 -53 -41 -82q-158 -223 -305 -278q-188 -170 -240 -170l-109 -41q-52 0 -190 61q-22 0 -68 68q-29 0 -49 123q-33 0 -39 176l6 21z M231 1769v27q0 55 88 88l62 -12l20 6q43 0 97 -102q39 -6 59 -33l152 -103l94 -88l-6 -20q23 0 41 -88v-8q-31 -55 -70 -56q-41 0 -94 76l-117 88l-94 47q-2 20 -96 64l-39 -8q-82 20 -82 102z" />
<glyph unicode="&#xe9;" d="M0 399l14 23l-8 35l8 6v6l-8 23l8 63v14l-8 29l14 43l-6 8v6l15 23l-9 6v6l9 37l-9 37q14 0 23 41l-14 14v15l20 36l-6 7q6 115 20 129l-6 63v6q0 49 121 152q0 47 164 63l6 6l43 -14h51l21 14l22 -6l64 21l6 -6h8l29 6h6l166 -41q70 -84 70 -129q-37 -92 -113 -92 l-57 49h-158l-43 -15l-21 9q-215 -31 -215 -129l-20 -109l6 -27l-12 -14v-72l41 -14q43 31 137 43h43l63 35l35 -14q25 18 92 28l101 58h20q66 -12 66 -43q-45 -106 -178 -156l-207 -135q-29 -23 -158 -58q0 -10 -63 -28v-51q0 -33 43 -70q0 -45 77 -86l52 -43l6 6h14 q0 37 72 37q0 14 63 14q18 18 107 49q0 52 129 93q49 59 114 94q20 92 58 106q0 39 26 64v8q100 0 101 -66q-29 -45 -29 -63l8 -6v-8q-35 -98 -172 -256l-235 -201l-185 -72l-8 8h-6q-27 -14 -80 -14h-12q-61 39 -135 63l-58 64q0 51 -86 94q0 66 -20 84v8l6 9zM457 1690v14 q14 16 20 63q20 2 43 72q39 39 170 72q0 14 101 20q0 18 114 66l29 -8l57 20q59 0 72 -78q0 -74 -123 -98l-12 -14h-8l-9 6h-6q-55 -57 -78 -58l-8 9h-6l-143 -115q-35 -20 -72 -72l-35 -20q-29 31 -86 35z" />
<glyph unicode="&#xea;" horiz-adv-x="1069" d="M0 627l6 32l-6 7v6l27 90l-9 33q14 0 27 108q10 0 27 78l78 27q63 -20 63 -39l-12 -21l24 -63q-45 -20 -51 -180h6l45 -15q0 20 72 21l90 -6l84 18l27 20l39 -14l6 6h6q72 -23 72 -39q0 -102 -54 -102l-45 -39l-30 6q-20 -27 -99 -45q0 -29 -207 -57l-12 12h-24 q33 -49 51 -162q49 -102 90 -102q20 18 84 18l123 60q63 63 192 141q0 43 78 78l78 96h26q45 -31 46 -70v-8q-18 0 -54 -90q-8 0 -45 -78q-84 -68 -84 -84q0 -18 -108 -108q0 -14 -123 -84q-66 -66 -150 -66l-24 -6l-6 6l-39 -12l-6 6h-9l-6 -6h-6q-98 45 -108 78l6 6 q-33 76 -54 162l-36 45l6 18q-31 137 -54 137l-6 7v6l6 6l-6 6l15 45l-21 39l12 39q-4 33 -18 33zM6 1409l6 25l-6 6q0 53 72 102q88 70 108 119q41 12 66 70l78 98l39 6q47 0 84 -27q223 -61 290 -168v-14l-8 -4l8 -8v-12l-14 -25l6 -21l-30 -26q-49 0 -93 26h-63 q-14 10 -129 33l-6 6q-31 0 -111 -98q-41 -18 -63 -70q-27 0 -27 -59q-72 -59 -117 -63q-70 18 -69 63v27q-21 0 -21 14zM219 1071q47 59 78 59h6l6 -6q82 51 150 52l6 6l18 -13h27l45 13l39 -6l12 12h15q31 -29 75 -39q41 -31 47 -90l-92 -58h-76l-26 -8l-33 15l-225 -52 q-59 0 -60 31z" />
<glyph unicode="&#xeb;" d="M0 655v41l6 9l-6 6v8q12 55 29 61l-29 92l14 15l-8 6v6l23 49l-23 41l23 98l-9 43q37 63 175 64v-8l20 8l43 -8l229 55l29 -6l6 27q-68 45 -110 127v34l20 70l-6 6h-8q-133 -133 -174 -133l-64 -6q-15 0 -61 49q-20 0 -21 14v50l6 26l-6 29q2 41 15 41l-9 8v12 q0 20 56 29l49 -14l20 20q176 -37 177 -96l26 -15q51 20 70 50l49 -9l78 15q0 -20 26 -21q43 -53 70 -118v-15q0 -68 -131 -104l-14 -64q111 -55 131 -151q-29 -72 -56 -84h-26q-29 0 -58 26q-94 0 -174 -20l-49 6q0 -33 -119 -41q-49 -70 -49 -96q0 -39 43 -78l-8 -21h8 l84 27l35 8l20 -14l9 6h14q12 0 12 -20h29q37 0 90 28h41l84 6l49 -49v-6q0 -94 -194 -160q0 -25 -105 -43q-27 -27 -162 -61l-41 -29l-8 -20l15 -35l-7 -8v-6q0 -39 64 -105v-8l-8 -6q0 -41 63 -55l21 -23h14q18 25 131 49h29q0 27 49 35l35 29q0 41 78 57q4 35 96 88 q0 18 112 121q0 40 50 55q34 0 55 -55q-20 -33 -21 -127v-6q-154 -188 -168 -189q0 -27 -110 -92q-68 -88 -260 -180h-105q-68 0 -139 70q0 12 -35 28l-35 47l-6 64l6 29l-34 26v15l8 8q-57 184 -58 215v8l9 47q-6 69 -29 98z" />
<glyph unicode="&#xec;" horiz-adv-x="401" d="M-225 1604v6q0 49 108 102q86 0 117 -76q14 0 39 -45l102 -57q16 0 39 -27q49 0 180 -92q53 -12 54 -82q-55 -6 -84 -47l-27 -12q-20 20 -78 33l-24 -7l-129 66q-115 27 -168 96q0 18 -27 19q-75 62 -102 123zM6 164l6 45v12l-6 27l27 78l-6 51l12 39l-6 39l6 6v8l-6 4v8 l18 129l-12 76l6 33l-18 39v26l12 19v51l-12 20l12 25l-21 53l21 27l-6 25l6 32l-6 19q25 66 78 65q41 0 108 -84l-6 -20l6 -58l-18 -59l6 -18h-6l6 -7v-6l-6 -39l6 -59q-14 0 -21 -84l9 -70q-16 0 -27 -59q12 0 18 -31q-18 -2 -18 -53l12 -57q-6 -51 -18 -66v-24 q0 -14 51 -33l12 -72l-84 -153q-14 -45 -24 -45q-98 0 -99 129z" />
<glyph unicode="&#xed;" horiz-adv-x="567" d="M0 1446l14 37l-8 35q16 0 43 57q20 49 51 63l35 -8q115 29 221 94q59 0 207 93v8l29 -8q29 0 70 28h16q121 -35 121 -78l-15 -43l7 -8v-12q0 -29 -129 -57l-127 -66q0 -33 -115 -49q-43 -66 -115 -66q-84 -141 -170 -141h-8q-45 0 -84 84q-18 0 -37 37h-6zM43 1004 l49 100l43 14l6 -8l43 31h15l65 -72l-8 -37l8 -28l-14 -35l6 -64v-14l-6 -8l14 -29l-8 -6v-6l29 -101q-6 -43 -15 -43l66 -393q12 0 43 -84l-17 -22l9 -6v-23q-43 -164 -92 -164l-9 -6h-28q-51 20 -84 72l-23 63l6 6v9l-6 28l15 21l-23 51l8 49l-8 43q23 0 23 72h8l-17 43 l17 20q-31 143 -52 144q6 49 15 49l-35 149l6 6l-6 37v49l6 9v6l-35 63z" />
<glyph unicode="&#xee;" horiz-adv-x="491" d="M-233 1198l6 23l-6 6v6l6 43l-6 33q172 88 172 151q29 0 47 76l-6 18l32 91l-6 6v8l6 6v6l-6 29l82 61h6q68 0 160 -110q45 0 59 -27q45 -41 64 -41l18 6q0 -12 97 -67l83 -82h7v-49l6 -33q-66 -72 -117 -78h-20q-37 28 -123 55l-15 15h-32q0 27 -41 26q-29 63 -82 64 q-84 -55 -84 -152q-10 0 -54 -90l-116 -102h-15l-6 8l-8 -8h-47q-12 0 -35 41q-20 0 -26 61zM61 117v6l13 29l-13 26l7 29l-7 6v6q41 37 41 103l-14 49q14 0 14 20l-14 41l14 41v14q-20 27 -20 54q12 0 12 34h8l-20 50l12 32l-6 9v6l6 26l-12 21v35l6 26l-20 70l14 76 l-21 123l27 26l-6 8v7q0 43 53 75h8l33 -20l23 6l55 -76l-14 -53q10 -70 18 -70q-6 -96 -18 -96l18 -143l-12 -97l8 -102q-16 0 -23 -70l9 -32l-9 -9v-6l9 -26l-9 -9q20 -88 76 -88l29 -61l-49 -102q-47 -8 -47 -84q-41 -16 -41 -27q-138 21 -138 117z" />
<glyph unicode="&#xef;" horiz-adv-x="505" d="M-51 1587q14 0 35 137q0 25 116 56h9q46 -15 86 -129l-7 -35l7 -62q-8 -82 -68 -81l-6 -7l-6 7v6l-33 -6q-37 0 -86 55q-45 0 -47 59zM43 109l39 108l-6 29q18 20 18 47v35l-12 20v21q53 49 53 129v82l6 6l-14 41l20 67l-6 64v26l27 88l-6 89l18 81l-6 9v6 q27 190 107 190l79 -61q-12 -176 -47 -252q-6 0 -18 -47l4 -21l-25 -49l7 -18l-7 -41l7 -8v-7l-7 -26l7 -35q0 -43 -33 -82l6 -20l-12 -68l6 -29q-14 -18 -15 -73h-6q12 -51 68 -91l-21 -79l7 -9v-6l-74 -143l6 -21l-25 -41q-20 -20 -67 -20q-18 0 -45 47q-31 1 -33 62z M399 1616q0 117 113 164q76 -37 100 -70l19 -59l-6 -29l6 -27q0 -123 -107 -149h-6q-84 47 -86 82z" />
<glyph unicode="&#xf1;" horiz-adv-x="1040" d="M0 -20q0 49 25 112v51q0 12 24 13l14 24l-8 6v7q57 37 58 131l37 51l-7 24q14 4 27 31l-6 39l24 137l-14 25l27 51v25l-6 18l12 106q0 29 -43 125l-8 25q0 98 100 119h39q12 0 24 -43q25 0 31 -58q29 -4 49 -137l113 -319q41 -45 82 -174h12q18 0 45 137q31 0 31 55 l25 12v45q31 68 30 113l15 12l-7 7v6l31 118l-12 150l12 12l-18 58l6 24l-6 51q3 111 49 111q0 20 18 20q29 -25 101 -30q12 -12 18 -115l-18 -31l6 -43l-6 -37l6 -8v-6q-16 0 -55 -268l6 -6q-8 -88 -27 -88l8 -6v-7q-37 -43 -39 -106l6 -19l-94 -294l8 -56q-45 -18 -45 -69 l-55 -62h-27q-68 25 -124 76l8 4l-33 127l6 6v6l-67 119l6 25q-27 0 -39 75q-29 61 -62 74h-6l-39 -61l15 -58h-9l9 -6l-9 -43v-69q-29 -29 -61 -156q-12 0 -33 -143q-43 -96 -92 -119q-57 25 -88 67v7zM274 1350l9 18l-9 6v8q61 172 95 195q25 4 45 61q55 8 55 74 q49 63 82 64h12q45 0 94 -88l101 -111l61 -8q0 20 107 69l6 7l12 30q53 0 125 76h6q82 -18 82 -76q18 0 19 -12q0 -33 -68 -94q0 -31 -64 -62q-20 -49 -137 -112q0 -10 -55 -21q0 -20 -76 -31q-72 6 -143 64q-35 68 -70 68q-61 -20 -61 -68q-35 -35 -82 -131l-51 -33 q-68 1 -95 107z" />
<glyph unicode="&#xf2;" horiz-adv-x="997" d="M0 342l20 41l-14 35l29 41l-8 47l49 110l-8 7v20l96 254q8 41 90 129q47 53 47 84l123 82l111 18v-6l6 6h26q131 -18 131 -53q41 0 115 -233l14 -74h-6l15 -49l-23 -56q29 -10 29 -20l-62 -240q-20 -47 -41 -47l-49 -108q-176 -201 -272 -254q-104 -76 -234 -76 q-90 59 -108 88q0 25 -41 90q0 41 -21 41l6 35v6q0 59 -20 82zM143 397l15 -14l-6 -41q12 -14 12 -76q53 -41 90 -47l6 6q4 16 111 41q4 16 53 35q102 109 102 129l138 186q18 113 41 129l-15 41l8 64v6q-18 80 -49 117v41q-20 0 -47 26h-20q-20 0 -21 -49q-29 -47 -55 -47 q0 -27 -27 -26l-49 6q-104 0 -156 -103l7 -35v-6q-72 -63 -88 -149h-15v-49l-14 -56l6 -32q-21 -1 -27 -97zM330 1800v6q2 55 53 56q6 27 76 26q51 -49 108 -178l90 -102q15 0 111 -123l-8 -35l20 -82q-10 -12 -61 -12q-10 -35 -21 -35h-14q-41 41 -88 61q-125 129 -125 144 q-86 135 -109 151z" />
<glyph unicode="&#xf3;" horiz-adv-x="937" d="M0 401q0 84 41 131l20 35l-14 21v35q74 193 113 192l-8 23l55 75q18 0 35 117q49 55 75 55l76 15q45 -35 119 -35q158 -150 186 -256q14 0 15 -41q14 0 20 -70l6 -6h9l-9 -20l9 -99l-9 -34l9 -41v-15q0 -78 -195 -288l-160 -140l-131 -49l-49 -6q-86 23 -152 61l9 23 q-14 0 -35 137l-29 35l14 41v29q0 75 -20 75zM152 346q0 -80 61 -96l8 -8h6l15 14h14l6 -6q131 33 131 76q45 29 105 125q55 41 55 81q29 0 35 35l-6 35l14 62q-12 29 -23 28l9 41q0 68 -70 96l-35 -61l6 -6v-8q-8 -41 -20 -41h-6l-90 49q-72 0 -125 -119q-27 0 -70 -174z M291 1466l166 207q0 31 145 76q22 22 172 55l41 -20l8 8h29q27 -12 27 -49t-27 -55l6 -7v-20q0 -14 -49 -14q0 -12 -180 -105q0 -41 -47 -41q0 -14 -70 -125q0 -45 -55 -96h-105l-26 12v43l-23 41l14 29l-14 33l8 8z" />
<glyph unicode="&#xf4;" horiz-adv-x="948" d="M0 352l33 80l-6 80q27 59 26 92q41 96 53 166q72 94 72 127q41 31 68 113q66 78 198 112h9q86 -31 198 -92q28 0 74 -74q14 -2 66 -133q14 0 14 -26h-8l20 -78l-12 -21l12 -41l-12 -71l6 -56q-20 -59 -127 -178v-12q20 0 21 -14v-15l-154 -166q-72 -66 -113 -65 q0 -18 -86 -47q0 -8 -112 -27l-7 -6q0 14 -106 33q0 29 -35 73l8 27q-68 0 -67 146zM139 465l15 -66l-9 -20q14 -23 15 -86l59 -80q47 0 160 66q66 76 139 106q0 18 60 86l26 53q37 31 68 187l6 8v6q0 20 -27 45q0 72 -65 100l-35 -20h-12q-47 59 -127 59q-41 0 -68 -32 q-47 0 -92 -107q-34 0 -74 -160q-27 -145 -39 -145zM172 1374q25 100 47 101q14 0 14 32q66 29 66 41l53 54q0 27 21 38q0 49 53 134q0 53 66 53q18 0 151 -121q31 0 221 -170q16 -59 45 -88l-71 -86l-80 12l-39 -12q-6 27 -121 92q-45 0 -68 53l-6 9h-6q-76 -45 -112 -134 q-18 0 -101 -106q0 -14 -33 -14h-6q-61 34 -94 112z" />
<glyph unicode="&#xf5;" horiz-adv-x="1003" d="M0 1276q0 27 31 92q0 27 12 27l20 -6v6q51 43 125 131q55 0 74 61l-6 27q16 37 70 74q25 0 49 24h6q55 -49 119 -74q55 -88 106 -88h49q61 29 88 88q27 0 76 31l6 -6h6l58 18q16 0 43 -57v-55q-35 -84 -176 -201q-28 0 -68 -49l-39 -6h-37q-113 33 -112 55q-4 23 -56 45 q-6 23 -38 37h-37q-70 -39 -125 -156q-27 0 -74 -57q-72 -43 -127 -43l-31 49q0 33 -12 33zM18 299l21 70q-20 37 -21 75q0 25 13 25l-13 86q12 0 13 39q33 0 69 137l-6 43q31 0 49 57l113 156l82 37l61 8l95 -33l36 9v-9l58 21l24 -6l6 6h7q66 0 139 -100l10 -52h-6 l45 -125l-12 -36v-25q14 -8 18 -113q0 -70 -88 -213l-49 -51l6 -6q0 -82 -49 -111l-51 -51l-19 6q0 -57 -149 -118q-39 0 -82 -25l-39 12l-43 -6q-102 27 -119 70q-18 0 -18 24l-49 43q0 49 -27 70q0 37 -25 86zM131 393l19 -55l-7 -19q61 -145 138 -145h32l107 39 q0 16 55 25q70 106 80 106q2 20 39 43l18 33l6 -6h7q20 0 45 67l6 6l-12 76l12 68q-12 0 -21 24l15 45l-15 64l15 10l-58 76l-57 12l-10 -12v-6l6 -31l-45 -39h-37l-55 64h-8q-45 0 -93 -31l-8 6h-6l-18 -6l8 -33q-72 -66 -139 -219l6 -31l-25 -94l6 -4v-6zM481 299v6l6 8h7 l6 -8v-6l-6 -4h-7z" />
<glyph unicode="&#xf6;" horiz-adv-x="1054" d="M0 1698q27 139 123 139h18q141 -66 226 -65l94 -9l26 9l95 -19l280 29h37l76 28q76 -6 76 -18l10 8h8q66 0 66 -84v-94q-6 -37 -328 -149l-29 10l-178 -29q-582 61 -582 168q0 49 -18 76zM94 367l19 196l-19 66l103 534q27 0 57 94q51 45 84 46q51 0 113 -56 q96 0 196 -139l84 -76q123 -86 178 -366v-179q0 -203 -280 -346q-49 -78 -168 -141h-58q-162 31 -253 178zM272 414q35 -102 95 -133q250 106 346 348l10 73q-39 115 -225 349h-11q-18 -84 -131 -179l-57 -149l10 -47q-37 -68 -37 -141v-19l9 -86l-9 -8v-8z" />
<glyph unicode="&#xf7;" horiz-adv-x="1122" d="M0 504l104 94h39l115 -6l29 10l28 -4l271 76l6 6v4l14 -4q31 0 178 45l62 -6q0 4 65 26l33 29h6q98 -18 99 -49v-6q-31 -43 -56 -133q-88 -66 -110 -66l-37 -6l-23 29l4 14l-4 6h-12l-20 -6l-23 6h-12l-17 -10h-55l-127 -33l-4 4h-6q-27 0 -55 -26h-27q-182 -31 -182 -68 l-185 -65h-14q-74 51 -74 100zM391 905q25 94 74 94h27q94 0 94 -55t16 -78q-12 -72 -39 -98l-45 -4l-10 10h-6l-37 -10l-68 37l6 28zM436 338q23 29 23 45q39 53 59 53l68 -10l10 10h6l43 -76q-47 -156 -127 -155q0 10 -43 10l-29 41l7 27q-1 30 -17 55z" />
<glyph unicode="&#xf9;" horiz-adv-x="1019" d="M0 643l14 74l-8 20l23 15l-6 8v100l14 14l-8 9q0 76 37 114l20 37l-6 35q12 0 49 59l66 7q39 -12 65 -72v-14l-65 -209q0 -45 -21 -45l14 -129l-28 -29v-8l14 -43l-14 -43l43 -174q20 -115 86 -115l22 -8q68 15 209 160q66 25 66 77q29 33 28 74q34 0 43 123 q43 29 66 143l29 88l8 35l-15 43l7 23q0 20 -101 151q-16 18 -22 74q23 0 100 72l37 -9l51 9l43 -43l-6 -9v-6q37 -72 57 -317l-8 -23l8 -28q-18 -43 -28 -43l6 -23l-6 -29l6 -22q-49 -92 -49 -254q-135 -236 -168 -258q-100 -70 -129 -137q-84 -51 -109 -51l-8 -9 q-41 -14 -66 -43l-57 -14h-14q-41 0 -172 109q-31 0 -31 14v6l14 16l-14 66l8 20q-37 0 -51 158q-29 35 -29 66v22zM160 1657q14 53 63 92l37 14q88 0 137 -71q70 0 109 -129q14 -6 57 -117h23v-6l-15 -23l7 -8v-6l-43 -131l-23 -15q-135 88 -135 138q-12 0 -31 51 q-186 137 -186 211z" />
<glyph unicode="&#xfa;" horiz-adv-x="1062" d="M0 565v33l33 53v15l-13 18l33 172l-14 39v20q39 139 74 158l32 12h7q86 -31 86 -116q0 -94 -101 -312l8 -18l-8 -74v-39l8 -26l-14 -60q35 -82 47 -170q18 0 45 -32l47 -15q6 18 78 47q0 20 53 21q207 145 232 229l39 86v6l-6 33q12 0 12 33h6l-6 6v6l12 53l-6 27l6 41 l-12 18l6 33v6q-39 78 -51 158q-92 31 -92 92v27q0 14 18 14q0 37 74 72h33q78 -27 77 -92l48 -152l-9 -6l33 -113l-4 -24l18 -205q0 -74 -32 -119l6 -39l-12 -14l6 -6v-6q-72 -211 -119 -211q-41 -31 -92 -113l-137 -72l-9 -6h-6l-39 6q-43 -47 -80 -47l-12 -12h-6 q-33 33 -59 33q-27 -4 -27 -13q-49 0 -80 52q-33 0 -111 151v21l13 12l-13 106h7l-15 60l8 27l-14 32l6 72zM291 1389q29 20 71 145q45 27 46 72l53 73q18 14 39 66q20 14 41 65q29 0 57 54l35 -15l12 15h21q63 -74 116 -92v-15q0 -86 -110 -86l-113 -164q0 -14 -33 -39 l-26 -38q-41 -166 -78 -166l-27 -7q-72 6 -71 60q-17 0 -33 72z" />
<glyph unicode="&#xfb;" horiz-adv-x="1081" d="M0 592l6 18l-6 72l12 10v8l-6 37l12 27l-12 12v33q20 47 27 154q-20 0 -21 14v12l15 12l18 -6v6q0 37 102 52h33q29 0 33 -135q-45 -143 -45 -199l-6 -6l-8 -21l14 -51l-14 -63l8 -25l-8 -6v-8q8 -61 45 -127v-45q47 -141 84 -142l51 -8l115 66q0 25 122 135l52 76l-7 8 v6l58 94l-6 39v6l14 21v39l-14 18v12q0 33 14 33l-8 33l8 39l-20 18v12l20 21q-45 78 -45 154q25 102 100 102q66 -61 66 -102l24 -39l-6 -31l21 -96l-6 -9v-6l6 -39v-6l-6 -39l12 -37v-14l-6 -39l18 -30v-25q-25 -27 -24 -53l12 -37q-29 -74 -39 -162q-123 -150 -207 -223 q0 -12 -49 -45q0 -25 -90 -60q-31 -57 -141 -57q-53 0 -160 57q-43 47 -72 111l6 18q-18 0 -18 70h6q-39 104 -39 135l6 21q-20 72 -39 90v12l6 6l-6 6v6l15 27q-13 29 -27 33zM27 1470q0 57 145 103q0 20 90 51q8 41 60 129q0 96 108 96q55 -78 162 -123q211 -168 211 -180 q0 -45 -72 -100q-162 0 -205 55h-6l-33 -6q0 27 -57 39q-10 0 -102 -102q-145 -70 -181 -70q0 -14 -75 -14q-20 18 -21 59l-18 12l6 6v21z" />
<glyph unicode="&#xfc;" horiz-adv-x="1103" d="M0 662l6 26l-6 39l12 14l-6 27l21 35l-7 6v18l7 35l-21 80l6 21l-6 6q10 66 21 65l-15 41q0 14 35 15l27 20q20 51 32 51q43 -14 68 -45q27 0 45 -82l8 -6l-20 -18l6 -29l-39 -145l6 -33l-33 -109l7 -26l-15 -33l15 -39v-8l-7 -27l48 -127l-9 -33q0 -16 41 -73 q23 -94 95 -95l6 -6h6l20 13l33 -7h14q150 29 213 80q113 125 113 148q35 80 82 127l-6 8v4l6 62l-6 20l18 6v27l-18 80l6 20q-25 227 -127 227v13l33 41l-6 6v59q0 51 53 103h33q86 -57 120 -95v-8l-6 -6v-6q23 -51 39 -148l21 -20l-6 -27l18 -159l-12 -27l12 -68l-12 -45 l6 -114h-6l6 -6v-15l-66 -153q0 -33 -141 -193q0 -16 -68 -53q0 -41 -260 -121l-32 6h-62l-4 6l-68 -12q-74 0 -159 106l6 27q-51 100 -74 213h-6l6 47v21l-14 41l8 39q-18 18 -29 88l-6 6v47zM274 1536l21 41l-8 53l35 47l-15 60q51 27 86 26h21q57 -10 114 -100l-26 -100 l6 -7v-6q0 -68 -94 -106q-66 0 -113 72q-27 0 -27 20zM588 1698v6l47 80l47 12h80q18 0 33 -72l-7 -8q10 0 33 -47q20 0 21 -18q0 -135 -80 -135q-35 0 -35 -13q-106 14 -106 33l14 14q-27 29 -27 60l6 8q-26 0 -26 80z" />
<glyph unicode="&#xfd;" horiz-adv-x="1024" d="M0 1114q16 57 68 80h67q88 -61 88 -94q92 -39 215 -236l41 -20h21q10 0 55 82q33 0 33 65l6 8q0 20 35 27l12 27v20l-6 35q27 0 121 127q39 0 61 -41q35 0 35 -45v-41q0 -18 -96 -156l-88 -176l14 -26q0 -61 -100 -150q-96 -145 -97 -180q-12 0 -12 -41 q-82 -106 -82 -164l21 -65q0 -27 -62 -103q-29 -47 -127 -47l-67 68v20q18 61 41 62q51 74 73 188q25 0 74 135q14 0 14 47q23 6 33 47l-6 41l6 6v7l-26 47q-27 0 -27 41q-35 12 -35 61q-12 0 -188 195q-109 31 -109 122zM276 1303v47q76 211 150 249q0 25 141 136h21 q53 -4 88 -54q27 0 26 -41v-26q-43 0 -108 -135q-14 0 -82 -95h-12q0 -37 -115 -122h-27q-82 23 -82 41z" />
<glyph unicode="&#xff;" horiz-adv-x="931" d="M0 1436q66 51 104 51q74 -22 74 -37v-23l-14 -16q33 -94 51 -111q14 0 14 -20l-6 -39q39 -33 74 -127q29 -10 68 -102q20 0 65 -74l-6 -8v-8l51 -23q53 0 90 113q12 0 31 65l-16 31l8 29l-8 8v6l8 45v23l-17 22q51 100 107 113l37 -23l20 15h8q39 0 60 -142l-119 -393 q0 -23 -74 -96q0 -31 -104 -246l-45 -121l8 -6v-6l-68 -150q0 -84 -36 -104l-82 -82h-29q-43 43 -98 74v67l112 127q57 84 88 193q53 37 54 186q-61 0 -136 119q0 16 -59 88q0 59 -65 164l-82 141q0 25 -62 164l8 31zM170 1747q0 63 141 172h37l17 -16l8 8h6l104 -119 l-8 -23h37q45 59 84 60q94 -12 94 -60q53 -6 53 -28v-68q-23 -164 -133 -164l-8 -8h-6q0 12 -61 37q-10 35 -74 113h-8q-37 -37 -74 -37q0 -20 -60 -31q-119 57 -118 113z" />
<glyph unicode="&#x152;" horiz-adv-x="2048" d="M0 438v8l8 9l-8 8v14l8 8l-8 9v32q47 63 82 179h6l-6 8v8q74 209 203 301q88 102 411 225q40 0 178 74q43 0 91 49h8q41 0 129 -65l41 8l49 -8q66 10 113 32q76 -16 194 -16h8q66 25 115 25l14 16h25q108 0 154 -98l10 -31q-43 -139 -82 -139l-41 -17l-137 33l-58 -8 h-112l-58 8q0 -20 -120 -33l-19 -14q47 -201 82 -227l49 16h17l24 -16l33 22q14 0 14 -22q184 16 398 63q123 -52 122 -104q-12 -139 -65 -140h-8l-113 11q-45 -25 -195 -33l-8 -8l-49 14l-252 -64q0 -28 -80 -153l-8 -49q33 -12 33 -25l41 8h6q72 0 98 -24q33 20 129 33 l58 -9q55 0 235 41l39 -73q-31 -129 -88 -129l-49 -17l-8 8h-8q-92 -47 -373 -82q0 -10 -64 -22l-73 6h-99l-30 -22h-17l-41 22l-65 -6l-39 22l-197 -63l-145 -41q-160 0 -283 104l-115 91q-47 20 -47 98l-41 39v82zM211 463q51 -178 145 -178q33 -57 99 -58h30l27 17h72 q174 43 235 162q63 0 113 63l57 66q-49 89 -49 153q33 80 33 211q-43 68 -260 123v6l-178 -55q0 -25 -58 -49l-31 8h-8q0 -27 -114 -129q-57 -100 -58 -148q-43 0 -55 -161l8 -9v-8l-8 -8v-6z" />
<glyph unicode="&#x153;" horiz-adv-x="1998" d="M0 418v18l18 29v18l-18 29l18 29v114l21 152v39l55 112l-8 29l141 180q6 39 267 154l10 8h65l39 -8q23 0 76 55l37 10l10 -10h8l76 29h10q82 -76 172 -76h27l39 10l39 -10h47l57 19l47 -19q113 14 113 29l47 -10h31l94 38q170 -43 170 -143l29 -104q-37 -33 -37 -66 l-105 -29q0 45 -114 58q-483 -33 -484 -86q57 -72 58 -123l123 29l47 -11l39 11q113 0 112 -68h94l39 -8l37 8q254 0 334 -123v-18q-61 -104 -125 -105l-47 8l-55 -8v8q-162 -39 -418 -57l-10 -8v-10l-133 39q-18 -133 -76 -220l-10 -36h38l238 -50l84 21l68 -10l10 10h8 l39 -10h29q45 39 102 39l39 -11l47 11l57 -11l21 19l8 -8h10l66 8q39 0 57 -76q-29 -66 -248 -152l-8 -10l-39 10l-188 -57l-86 -18l-133 10h-29l-104 -10l-29 10l-94 -31l-86 10l-19 -18h-49q-70 0 -178 94l-154 -8l-65 8l-37 -8q0 27 -143 66q-152 123 -152 151l8 10v11 q-47 0 -65 75q-29 1 -29 19zM238 598l57 -123q57 -74 170 -104l10 -11h19l47 11l57 -11h10q41 0 94 66h11l26 -8v8q55 57 115 164l-18 141l10 37l-86 201l-86 47l-76 -10l-76 10q-180 -25 -180 -115q-52 0 -86 -104l10 -47l-18 -58v-84z" />
<glyph unicode="&#x178;" horiz-adv-x="989" d="M0 1436q66 51 104 51q74 -22 74 -37v-23l-14 -16q33 -94 51 -111q14 0 14 -20l-6 -39q39 -33 74 -127q29 -10 68 -102q20 0 65 -74l-6 -8v-8l51 -23q53 0 90 113q12 0 31 65l-16 31l8 29l-8 8v6l8 45v23l-17 22q51 100 107 113l37 -23l20 15h8q39 0 60 -142l-119 -393 q0 -23 -74 -96q0 -31 -104 -246l-45 -121l8 -6v-6l-68 -150q0 -84 -36 -104l-82 -82h-29q-43 43 -98 74v67l112 127q57 84 88 193q53 37 54 186q-61 0 -136 119q0 16 -59 88q0 59 -65 164l-82 141q0 25 -62 164l8 31zM170 1747q0 63 141 172h37l17 -16l8 8h6l104 -119 l-8 -23h37q45 59 84 60q94 -12 94 -60q53 -6 53 -28v-68q-23 -164 -133 -164l-8 -8h-6q0 12 -61 37q-10 35 -74 113h-8q-37 -37 -74 -37q0 -20 -60 -31q-119 57 -118 113z" />
<glyph unicode="&#x2c6;" horiz-adv-x="960" d="M0 1141q18 59 47 59q34 18 37 37q37 4 37 37q82 45 115 112l65 99l-6 16l53 43v35l55 43q117 0 181 -174q51 -35 108 -139q23 0 127 -115q12 0 41 -59l6 -7h6q-6 -61 -18 -61l6 -4v-6q0 -16 -106 -37q-49 74 -152 139q0 20 -47 47q0 22 -61 74q0 33 -35 59h-62 q-18 -68 -254 -241l-41 -25q-90 0 -90 49q-12 1 -12 19z" />
<glyph unicode="&#x2dc;" horiz-adv-x="681" d="M-6 1389l24 69q23 53 45 62q35 43 35 65q18 4 66 45l47 15q111 -35 215 -95q0 -25 100 -86h6l39 15l7 -4h4q25 8 51 34q49 0 49 21q0 35 27 35l24 65q0 35 15 51l47 -10l18 4q31 0 31 -80v-20q-39 -100 -66 -100q-4 -33 -55 -70q-31 -61 -90 -62l-45 -24l-31 4l-4 -4 l-72 8l-6 -4h-4q-27 0 -80 72q0 25 -127 59l-28 -20l-21 6l-27 -10v4q-12 0 -84 -111l-57 -10q0 29 -35 35z" />
<glyph unicode="&#x2000;" horiz-adv-x="1107" />
<glyph unicode="&#x2001;" horiz-adv-x="2215" />
<glyph unicode="&#x2002;" horiz-adv-x="1107" />
<glyph unicode="&#x2003;" horiz-adv-x="2215" />
<glyph unicode="&#x2004;" horiz-adv-x="737" />
<glyph unicode="&#x2005;" horiz-adv-x="552" />
<glyph unicode="&#x2006;" horiz-adv-x="368" />
<glyph unicode="&#x2007;" horiz-adv-x="368" />
<glyph unicode="&#x2008;" horiz-adv-x="276" />
<glyph unicode="&#x2009;" horiz-adv-x="442" />
<glyph unicode="&#x200a;" horiz-adv-x="122" />
<glyph unicode="&#x2010;" horiz-adv-x="909" d="M0 629l18 37l-12 36q0 18 64 27q0 12 245 31q0 10 58 12q0 35 194 57l43 -12l88 12l52 -45l6 -24q0 -70 -189 -101l-24 13q-27 -20 -146 -33q-86 -31 -151 -37v6l-164 -43q-82 19 -82 64z" />
<glyph unicode="&#x2011;" horiz-adv-x="909" d="M0 629l18 37l-12 36q0 18 64 27q0 12 245 31q0 10 58 12q0 35 194 57l43 -12l88 12l52 -45l6 -24q0 -70 -189 -101l-24 13q-27 -20 -146 -33q-86 -31 -151 -37v6l-164 -43q-82 19 -82 64z" />
<glyph unicode="&#x2012;" horiz-adv-x="909" d="M0 629l18 37l-12 36q0 18 64 27q0 12 245 31q0 10 58 12q0 35 194 57l43 -12l88 12l52 -45l6 -24q0 -70 -189 -101l-24 13q-27 -20 -146 -33q-86 -31 -151 -37v6l-164 -43q-82 19 -82 64z" />
<glyph unicode="&#x2013;" d="M0 575v25q2 12 47 27q0 29 57 37h37l4 -7l68 17l53 -10l31 10h20l7 -4l100 14l18 -4l127 41l27 -10l14 6l47 -6l119 41l17 -11l63 43l74 15q0 -12 71 -58l7 -36l-13 -25l13 -53l-7 -21l11 -10v-33q-25 -31 -74 -31l-25 23h-84l-16 8h-51q-35 0 -74 -18l-6 4h-4l-213 -31 l-37 4l-27 -4l-6 4q-221 -31 -321 -67l-17 6l-14 -6q-43 65 -43 120z" />
<glyph unicode="&#x2014;" horiz-adv-x="1914" d="M0 504v6q23 119 59 119l125 -15q45 0 45 15l33 -6h86q63 0 119 24h33l20 -12h39l45 20l8 -8h6l99 27v-6l6 6h86l59 8q39 -8 39 -20q76 12 107 38l6 -6q78 6 78 21l26 -8l217 8l15 12h92l33 27q98 -28 98 -99l6 -47q-12 -111 -65 -110l-7 -9h-47q-31 0 -137 41l-26 7 l-54 -7v7l-6 -7h-20l-84 13l-54 -13l-47 7l-6 -7h-6l-27 7l-26 -7l-6 7l-78 -7h-41q-29 -27 -92 -26h-13l-6 6l-41 -21h-32l-111 -12v6l-6 -6l-35 6l-86 -32l-4 6l-8 -6l-27 6l-72 -6l-6 6h-6q-100 -33 -250 -39q-35 0 -53 86z" />
<glyph unicode="&#x2018;" horiz-adv-x="681" d="M0 1640q47 84 102 84q14 -12 91 -18q29 -37 65 -37l6 6h6q223 -111 224 -184l28 -31l-6 -30q0 -23 31 -23l18 -25v-18q-18 0 -18 -18l6 -7l-37 -12q-117 49 -149 96l-162 84h-96q-109 74 -109 133z" />
<glyph unicode="&#x2019;" horiz-adv-x="487" d="M96 1552q6 86 19 93l-6 26l16 12h86l45 -28v-10q55 -35 55 -97q18 0 29 -137l-6 -20l6 -7l-18 -106l6 -6v-6l-11 -56l5 -16l-66 -57l-29 -13q-57 63 -57 97q0 29 -10 45l33 61l-7 6v6l13 23l-13 39l13 10q0 12 -23 12l-6 7v6l6 22q-14 57 -80 94z" />
<glyph unicode="&#x201c;" horiz-adv-x="600" d="M0 1245l18 43l-12 43q0 86 86 119q49 0 49 -39l27 -74l-39 -116v-31l-12 -100v-7l8 -36l-8 -7v-6q0 -78 39 -110q-29 -49 -64 -50q-46 0 -55 105l-12 12l6 76v37q-25 25 -25 61v56zM272 1110l7 41l-7 51l13 31l-6 24q0 172 92 173l24 8q25 0 43 -64l-12 -55l6 -31 l-12 -67l6 -31l-25 -113l7 -6l-7 -31l7 -49l-7 -43l7 -24l-7 -6l13 -13l-6 -6v-6l6 -25q-9 -31 -43 -30h-19q-31 0 -61 166l12 24z" />
<glyph unicode="&#x201d;" horiz-adv-x="600" d="M0 1245l18 43l-12 43q0 86 86 119q49 0 49 -39l27 -74l-39 -116v-31l-12 -100v-7l8 -36l-8 -7v-6q0 -78 39 -110q-29 -49 -64 -50q-46 0 -55 105l-12 12l6 76v37q-25 25 -25 61v56zM272 1110l7 41l-7 51l13 31l-6 24q0 172 92 173l24 8q25 0 43 -64l-12 -55l6 -31 l-12 -67l6 -31l-25 -113l7 -6l-7 -31l7 -49l-7 -43l7 -24l-7 -6l13 -13l-6 -6v-6l6 -25q-9 -31 -43 -30h-19q-31 0 -61 166l12 24z" />
<glyph unicode="&#x201e;" horiz-adv-x="790" d="M0 -123q0 14 51 57q0 49 103 134l24 51q-31 43 -31 69h7l-13 31l6 33l-12 108q8 0 58 89l43 32h26q47 -33 64 -78l-7 -6v-6q31 -59 31 -121l-6 -6v-6l6 -18l-6 -66l6 -18l-6 -6l-6 -19h-6l6 -6v-6q-33 -20 -43 -96q-31 -63 -102 -115l-39 -64q0 -18 -58 -63h-12 q-84 47 -84 96zM299 -111q6 70 33 70l6 18l-6 39q33 0 33 64q25 0 30 84l-6 31q18 6 19 38l-7 7h-6l51 190q0 31 52 51h30q70 -33 70 -102v-6q-47 -119 -70 -299q-16 0 -43 -88q-43 -100 -69 -127q0 -33 -45 -66h-33q-29 0 -39 96z" />
<glyph unicode="&#x2026;" horiz-adv-x="1652" d="M0 143q14 174 78 189l41 8h31q55 0 71 -139l-39 -51q-8 0 -24 -48l12 -57q0 -43 -119 -65h-6q-39 18 -39 77l6 60zM582 111l14 39l-14 59q8 57 26 57h27l24 -6l9 6h6q90 0 110 -78q14 0 27 -92q-45 -14 -45 -33l4 -51q-16 -12 -45 -12l-33 -41h-12q-72 29 -72 86 q-8 0 -26 66zM1151 51q0 23 39 92l-14 13q0 80 145 86q0 -10 72 -72l12 -47v-33q-45 -59 -45 -86q-20 -57 -74 -57l-45 -6h-24z" />
<glyph unicode="&#x202f;" horiz-adv-x="442" />
<glyph unicode="&#x2039;" horiz-adv-x="1193" d="M145 479q0 86 115 115q82 51 170 147q18 0 115 115q94 70 94 111q23 0 72 55q98 37 98 96q74 61 115 62l32 6q33 -35 33 -62q-23 -12 -22 -32l6 -50q-16 -18 -76 -43l-88 -77l4 -4v-7q0 -10 -39 -20l-4 4q0 -16 -88 -66q-55 -55 -55 -71l-135 -109q-78 -43 -78 -88 q0 -16 78 -33q0 -12 63 -20l160 -94q109 -82 147 -88q0 -20 29 -27l27 -78v-4q-55 -78 -99 -78q-37 33 -131 49q-4 12 -88 56q-72 78 -160 88q-18 0 -49 39q-39 20 -96 32l-29 17q-43 0 -121 59z" />
<glyph unicode="&#x203a;" horiz-adv-x="1392" d="M66 1194l20 12l-6 33q10 39 115 137q92 0 149 -129q41 -37 164 -88q0 -16 59 -35l15 -14l8 8h6l88 -20l35 8q0 -27 115 -49h47l32 -27q129 12 129 35q109 -23 109 -111l8 -26q-25 0 -55 -129l-53 -74l-35 6h-12q-41 0 -144 -102q-20 0 -35 -33q-20 0 -100 -94l-6 -8h-8 l-6 8h-9q-51 -23 -114 -103q-55 -18 -56 -26v-29q0 -20 23 -47v-35q-238 -188 -307 -188l-88 129q0 61 102 147l6 23l8 -8h13q55 22 55 67l68 70q25 0 184 168q23 0 141 108q14 0 14 35h7q0 43 -191 88q-102 43 -170 53q-47 43 -211 117q0 12 -47 12l-53 56l6 6v20z" />
<glyph unicode="&#x205f;" horiz-adv-x="552" />
<glyph unicode="&#x20ac;" horiz-adv-x="1400" d="M0 774v47q82 84 113 84q84 -14 84 -24l32 6h47l84 45l93 119q0 76 223 235q0 23 53 39q27 39 137 100q0 12 47 13q0 29 156 59q160 -23 160 -98q14 0 33 -60q-6 -98 -33 -98h-27q-23 20 -53 21q0 18 -12 18l-27 -6q-16 47 -53 47h-51q-184 -72 -324 -172 q-14 -31 -143 -143l-33 -68h65l60 -6l6 6h6l21 -6q59 33 86 33l30 -7l54 15h6q74 -31 73 -80q-20 0 -20 -21l-66 -12l-6 6h-8l-188 -71q-82 0 -125 -54q-111 -18 -125 -39v-6l18 -20l60 6l14 -12l51 6l6 -6q71 6 86 18h72q23 20 119 21v-7q33 14 104 15q20 0 27 -53 q-109 -66 -197 -66l-119 -41q0 -37 -137 -57q-35 -23 -119 -39q-35 -29 -38 -47q37 -197 118 -197q0 -41 60 -41h6q268 45 268 86l256 113q152 117 164 137l41 27q72 -12 72 -54q-14 0 -15 -32q-37 -14 -116 -84q-80 -37 -86 -68q-51 -12 -177 -131q-102 -70 -157 -137 q-57 -23 -152 -33l-33 6l-6 -6h-8l-39 27l-33 -7q0 10 -32 19l-27 -6q-164 139 -164 184q-20 123 -45 137q0 74 -98 99q0 12 -33 20q0 27 -27 27l-20 -8l-12 40l59 99q104 18 104 33l15 12h6l18 -12l21 32l-6 6l-60 -20l-8 6l-63 -18q-52 0 -113 104z" />
<glyph unicode="&#x2122;" horiz-adv-x="2471" d="M1085 1335v19q57 106 125 106l8 -10h10l35 10q66 0 90 -117q47 -57 125 -385l144 -358l10 -8h8q71 0 178 313q104 84 154 223l-27 91q6 125 88 124q100 -23 101 -34q92 -211 125 -656v-8l-11 -8l37 -279l-8 -36q0 -137 80 -205v-19q-53 -72 -117 -71h-35 q-143 104 -143 206v46l27 88l-19 180h8l-16 45l8 35l-27 151h9q-12 37 -27 37h-8q-27 0 -144 -223q-96 -119 -188 -287l-27 -8q-14 12 -124 25q-47 0 -127 360q-23 0 -35 61h-8l-11 -45l19 -71l-19 -160v-82l-8 -8l8 -10v-99q37 -37 37 -71q-35 -178 -63 -179l-35 -18h-64 q-55 0 -125 106v37l35 269v108l19 98v250l18 80l-8 10v9l8 10v8l-18 82v27l26 114zM-90 1290v17q20 111 100 110l154 -59q27 -14 201 -25l178 17v-9q256 53 389 136l65 16h19l57 -92v-35q-16 -43 -76 -43q0 -49 -227 -133q-10 -18 -152 -60q0 -45 -43 -126v-17h11l-11 -127 v-100l-8 -51l8 -33l-8 -43l27 -127l-19 -92q0 -111 43 -111q51 -18 52 -84h-8l8 -8v-8l-8 -43l8 -49q-16 0 -35 -68q-29 0 -60 -43q-90 0 -159 119l10 57l-10 27v16h10l-18 270l18 127l-27 152l9 43l-9 33l9 33l-9 10l17 168q0 31 -76 57l-41 -6h-86q-287 41 -287 108z" />
<glyph unicode="&#xe000;" horiz-adv-x="1425" d="M0 1425h1425v-1425h-1425v1425z" />
<glyph unicode="&#xfb01;" horiz-adv-x="1607" d="M1071 188q6 33 27 33v47l-6 33q41 25 41 47l-15 27q6 113 27 182l-6 41h6l-33 59l33 54l-6 6v47q6 47 20 47l-8 27l8 47l-20 26l27 62l-7 6v6l15 27l-8 26l8 9v6l-29 53q14 18 14 47h7l-21 100l14 15v18l-8 8v6l115 48q74 -18 94 -62v-18q0 -59 14 -88l-14 -54l6 -20 l-12 -27q12 -25 12 -73v-15q-27 -29 -26 -47l8 -59q-29 -10 -29 -21v-26q0 -55 -12 -86l12 -27q-12 -18 -18 -100l6 -23q-6 -59 -14 -59l8 -21l-8 -47l14 -12l-14 -47l8 -6v-9l-8 -6v-6q29 -72 41 -180l-21 -55l6 -7v-14q-35 -27 -53 -98q0 -35 -59 -35h-15q-46 0 -80 86 q-31 0 -41 102zM0 1235l14 22l-6 54l76 92l123 6l47 -14h6l25 14h37q147 0 147 -23l6 9h45l62 8q88 -10 100 -23h78l14 -16l8 8h37l39 -8q0 16 84 31q22 -22 123 -31l45 -39q0 -96 -442 -160h-31l-8 9l-8 -9l-76 9h-33l-6 6q-98 -10 -115 -29h-69q-52 0 -62 -86l25 -45 l-9 -25q23 -6 23 -45v-53l23 -23l61 23l39 -8l39 8q84 -6 84 -23l76 7h22l8 -7l8 7l37 -7l56 7q229 -27 229 -54l8 -30q-70 -51 -170 -92q-61 -53 -160 -54l-77 -39l-15 17h-8q-61 -39 -145 -39h-8q-41 0 -54 31q-31 0 -45 -46l31 -77l-8 -23l39 -92l-17 -45l8 -47v-45 q14 -29 115 -76l8 -41v-6l-123 -123h-53q-86 25 -86 106l-6 9v8l6 76l-6 47l6 61l-28 121v70l6 8l-15 76l9 39q-46 117 -93 337l-16 46l16 77l-92 121z" />
<glyph unicode="&#xfb02;" horiz-adv-x="1880" d="M1012 1200l8 74l-8 55q22 111 129 111l8 10q66 -23 66 -55l-19 -29l74 -84l10 -37l-28 -53l10 -10v-11l-19 -63l9 -29l-9 -100v-29l9 -100l-9 -39l9 -8v-8l-19 -84l10 -185v-55l37 -129h19q80 0 184 119q33 0 45 65l205 56l37 -11l82 11h28q72 -59 72 -129v-47 q0 -37 -192 -64l-74 -37q0 -27 -195 -168q-131 -121 -184 -137l-27 8l-55 -8q-139 55 -139 147q0 47 18 48l-8 8v28l8 82q-41 98 -63 748zM0 1235l14 22l-6 54l76 92l123 6l47 -14h6l25 14h37q147 0 147 -23l6 9h45l62 8q88 -10 100 -23h78l14 -16l8 8h37l39 -8q0 16 84 31 q22 -22 123 -31l45 -39q0 -96 -442 -160h-31l-8 9l-8 -9l-76 9h-33l-6 6q-98 -10 -115 -29h-69q-52 0 -62 -86l25 -45l-9 -25q23 -6 23 -45v-53l23 -23l61 23l39 -8l39 8q84 -6 84 -23l76 7h22l8 -7l8 7l37 -7l56 7q229 -27 229 -54l8 -30q-70 -51 -170 -92 q-61 -53 -160 -54l-77 -39l-15 17h-8q-61 -39 -145 -39h-8q-41 0 -54 31q-31 0 -45 -46l31 -77l-8 -23l39 -92l-17 -45l8 -47v-45q14 -29 115 -76l8 -41v-6l-123 -123h-53q-86 25 -86 106l-6 9v8l6 76l-6 47l6 61l-28 121v70l6 8l-15 76l9 39q-46 117 -93 337l-16 46l16 77 l-92 121z" />
<glyph unicode="&#xfb03;" horiz-adv-x="2619" d="M2082 188q6 33 27 33v47l-6 33q41 25 41 47l-15 27q6 113 27 182l-6 41h6l-33 59l33 54l-6 6v47q6 47 20 47l-8 27l8 47l-20 26l27 62l-7 6v6l15 27l-8 26l8 9v6l-29 53q14 18 14 47h7l-21 100l14 15v18l-8 8v6l115 48q74 -18 94 -62v-18q0 -59 14 -88l-14 -54l6 -20 l-12 -27q12 -25 12 -73v-15q-27 -29 -26 -47l8 -59q-29 -10 -29 -21v-26q0 -55 -12 -86l12 -27q-12 -18 -18 -100l6 -23q-6 -59 -14 -59l8 -21l-8 -47l14 -12l-14 -47l8 -6v-9l-8 -6v-6q29 -72 41 -180l-21 -55l6 -7v-14q-35 -27 -53 -98q0 -35 -59 -35h-15q-46 0 -80 86 q-31 0 -41 102zM1012 1235l14 22l-6 54l76 92l123 6l47 -14h6l25 14h37q147 0 147 -23l6 9h45l62 8q88 -10 100 -23h78l14 -16l8 8h37l39 -8q0 16 84 31q22 -22 123 -31l45 -39q0 -96 -442 -160h-31l-8 9l-8 -9l-76 9h-33l-6 6q-98 -10 -115 -29h-69q-52 0 -62 -86l25 -45 l-9 -25q23 -6 23 -45v-53l23 -23l61 23l39 -8l39 8q84 -6 84 -23l76 7h22l8 -7l8 7l37 -7l56 7q229 -27 229 -54l8 -30q-70 -51 -170 -92q-61 -53 -160 -54l-77 -39l-15 17h-8q-61 -39 -145 -39h-8q-41 0 -54 31q-31 0 -45 -46l31 -77l-8 -23l39 -92l-17 -45l8 -47v-45 q14 -29 115 -76l8 -41v-6l-123 -123h-53q-86 25 -86 106l-6 9v8l6 76l-6 47l6 61l-28 121v70l6 8l-15 76l9 39q-46 117 -93 337l-16 46l16 77l-92 121zM0 1235l14 22l-6 54l76 92l123 6l47 -14h6l25 14h37q147 0 147 -23l6 9h45l62 8q88 -10 100 -23h78l14 -16l8 8h37l39 -8 q0 16 84 31q22 -22 123 -31l45 -39q0 -96 -442 -160h-31l-8 9l-8 -9l-76 9h-33l-6 6q-98 -10 -115 -29h-69q-52 0 -62 -86l25 -45l-9 -25q23 -6 23 -45v-53l23 -23l61 23l39 -8l39 8q84 -6 84 -23l76 7h22l8 -7l8 7l37 -7l56 7q229 -27 229 -54l8 -30q-70 -51 -170 -92 q-61 -53 -160 -54l-77 -39l-15 17h-8q-61 -39 -145 -39h-8q-41 0 -54 31q-31 0 -45 -46l31 -77l-8 -23l39 -92l-17 -45l8 -47v-45q14 -29 115 -76l8 -41v-6l-123 -123h-53q-86 25 -86 106l-6 9v8l6 76l-6 47l6 61l-28 121v70l6 8l-15 76l9 39q-46 117 -93 337l-16 46l16 77 l-92 121z" />
<glyph unicode="&#xfb04;" horiz-adv-x="2891" d="M2023 1200l8 74l-8 55q22 111 129 111l8 10q66 -23 66 -55l-19 -29l74 -84l10 -37l-28 -53l10 -10v-11l-19 -63l9 -29l-9 -100v-29l9 -100l-9 -39l9 -8v-8l-19 -84l10 -185v-55l37 -129h19q80 0 184 119q33 0 45 65l205 56l37 -11l82 11h28q72 -59 72 -129v-47 q0 -37 -192 -64l-74 -37q0 -27 -195 -168q-131 -121 -184 -137l-27 8l-55 -8q-139 55 -139 147q0 47 18 48l-8 8v28l8 82q-41 98 -63 748zM1012 1235l14 22l-6 54l76 92l123 6l47 -14h6l25 14h37q147 0 147 -23l6 9h45l62 8q88 -10 100 -23h78l14 -16l8 8h37l39 -8 q0 16 84 31q22 -22 123 -31l45 -39q0 -96 -442 -160h-31l-8 9l-8 -9l-76 9h-33l-6 6q-98 -10 -115 -29h-69q-52 0 -62 -86l25 -45l-9 -25q23 -6 23 -45v-53l23 -23l61 23l39 -8l39 8q84 -6 84 -23l76 7h22l8 -7l8 7l37 -7l56 7q229 -27 229 -54l8 -30q-70 -51 -170 -92 q-61 -53 -160 -54l-77 -39l-15 17h-8q-61 -39 -145 -39h-8q-41 0 -54 31q-31 0 -45 -46l31 -77l-8 -23l39 -92l-17 -45l8 -47v-45q14 -29 115 -76l8 -41v-6l-123 -123h-53q-86 25 -86 106l-6 9v8l6 76l-6 47l6 61l-28 121v70l6 8l-15 76l9 39q-46 117 -93 337l-16 46l16 77 l-92 121zM0 1235l14 22l-6 54l76 92l123 6l47 -14h6l25 14h37q147 0 147 -23l6 9h45l62 8q88 -10 100 -23h78l14 -16l8 8h37l39 -8q0 16 84 31q22 -22 123 -31l45 -39q0 -96 -442 -160h-31l-8 9l-8 -9l-76 9h-33l-6 6q-98 -10 -115 -29h-69q-52 0 -62 -86l25 -45l-9 -25 q23 -6 23 -45v-53l23 -23l61 23l39 -8l39 8q84 -6 84 -23l76 7h22l8 -7l8 7l37 -7l56 7q229 -27 229 -54l8 -30q-70 -51 -170 -92q-61 -53 -160 -54l-77 -39l-15 17h-8q-61 -39 -145 -39h-8q-41 0 -54 31q-31 0 -45 -46l31 -77l-8 -23l39 -92l-17 -45l8 -47v-45 q14 -29 115 -76l8 -41v-6l-123 -123h-53q-86 25 -86 106l-6 9v8l6 76l-6 47l6 61l-28 121v70l6 8l-15 76l9 39q-46 117 -93 337l-16 46l16 77l-92 121z" />
</font>
</defs>
</svg>
