<?xml version="1.0" standalone="no"?>
<!DOCTYPE svg PUBLIC "-//W3C//DTD SVG 1.1//EN" "http://www.w3.org/Graphics/SVG/1.1/DTD/svg11.dtd" >
<svg xmlns="http://www.w3.org/2000/svg">
<metadata>
This is a custom SVG webfont generated by Font Squirrel.
Designer    : Steve Matteson
Foundry     : Ascender Corporation
Foundry URL : httpwwwascendercorpcom
</metadata>
<defs>
<font id="webfontW3XDV1aI" horiz-adv-x="2048" >
<font-face units-per-em="4096" ascent="3276" descent="-820" />
<missing-glyph horiz-adv-x="1024" />
<glyph unicode=" "  horiz-adv-x="1024" />
<glyph unicode="&#x09;" horiz-adv-x="1024" />
<glyph unicode="&#xa0;" horiz-adv-x="1024" />
<glyph unicode="!" horiz-adv-x="1364" d="M922 184q0 -52 -19 -94q-20 -44 -51 -77q-30 -32 -77 -52q-44 -19 -95 -19q-54 0 -96 19q-46 21 -76 52q-31 33 -51 77q-19 42 -19 94q0 51 19 95q20 46 51 77t76 51q42 19 96 19q51 0 95 -19q46 -20 77 -51t51 -77q19 -44 19 -95zM462 2682h436l-124 -1904h-188z" />
<glyph unicode="&#x22;" horiz-adv-x="1672" d="M1024 2682h394l-124 -962h-148zM254 2682h394l-124 -962h-148z" />
<glyph unicode="#" d="M1974 1048v-204h-520l-156 -844h-208l156 844h-620l-154 -844h-210l156 844h-344v204h384l116 614h-500v206h536l152 814h208l-150 -814h618l152 814h208l-152 -814h328v-206h-364l-114 -614h478zM668 1048h618l114 614h-618z" />
<glyph unicode="$" d="M962 -40q-111 1 -227 15q-114 13 -220 33q-98 18 -193 44q-83 22 -146 50v640h132l68 -382q35 -47 100 -87q68 -42 147 -74q83 -34 170 -53q88 -19 169 -24v1132l-182 65q-93 34 -174 76q-88 46 -156 98q-75 57 -125 131q-54 78 -83 175q-30 99 -30 229q0 146 54 265 t152 206t237 141q141 55 307 68v258h164v-254q167 -6 326 -31q169 -26 288 -55v-558h-130l-58 328q-30 28 -80 55q-41 22 -104 44q-46 16 -118 32q-54 12 -124 17v-954l189 -69q95 -35 184 -80q93 -48 166 -103q78 -59 134 -138t90 -184q33 -104 33 -242q0 -172 -54 -314 t-156 -246t-250 -168t-336 -78v-280h-164v272zM1582 660q0 122 -36 206q-36 83 -98 144q-59 58 -145 103q-79 42 -177 79v-1060q220 34 338 166q118 131 118 362zM548 2134q0 -108 32 -186q30 -73 88 -131q55 -55 131 -93q83 -41 163 -74v886q-201 -26 -307 -132 q-107 -107 -107 -270z" />
<glyph unicode="%" horiz-adv-x="3412" d="M880 -40h-220l1896 2764h222zM1442 1990q0 -357 -161 -551q-160 -193 -499 -193q-322 0 -482 190t-160 554q0 355 161 545q161 189 493 189q318 0 483 -184t165 -550zM1130 1990q0 140 -18 249q-18 110 -58 184q-41 76 -107 114q-67 39 -165 39t-162 -39t-102 -114 q-38 -77 -53 -184q-15 -109 -15 -249q0 -142 15 -253q15 -109 53 -187q38 -76 102 -117q65 -41 162 -41t165 41q66 40 107 117q40 75 58 187q18 111 18 253zM3272 692q0 -360 -160 -553t-498 -193q-323 0 -483 190q-161 191 -161 556q0 356 162 545t494 189q319 0 482 -184 q164 -185 164 -550zM2962 692q0 140 -18 249q-18 110 -58 184q-41 76 -107 114q-67 39 -165 39t-162 -39t-102 -114q-38 -77 -53 -184q-15 -109 -15 -249q0 -142 15 -253q15 -109 53 -187q38 -76 102 -117q65 -41 162 -41t165 41q66 40 107 117q40 75 58 187q18 111 18 253z " />
<glyph unicode="&#x26;" horiz-adv-x="3186" d="M1978 2166q0 -148 -57 -252q-58 -105 -150 -181q-96 -79 -213 -133q-129 -60 -244 -104l844 -768q92 189 146 373t60 353l-284 54v106h914v-106l-278 -54q-20 -70 -59 -187q-28 -83 -82 -218q-47 -115 -108 -237t-141 -240l456 -416l330 -50v-106h-688l-342 310 q-73 -66 -171 -134q-91 -63 -207 -112q-111 -47 -251 -76q-134 -28 -303 -28q-497 0 -745 193q-249 193 -249 559q0 185 62 315q61 127 158 217q96 88 213 144q120 57 227 98q-60 58 -110 121q-53 67 -97 148q-43 81 -69 177q-26 98 -26 208q0 125 41 233q41 107 131 185 q91 79 232 122q144 44 344 44q198 0 333 -43q137 -44 222 -118q85 -75 123 -177q38 -103 38 -220zM1204 132q128 0 237 24t199 66q92 43 165 97q77 57 139 119l-998 914q-72 -31 -145 -79q-72 -47 -127 -119q-57 -74 -91 -174q-35 -103 -35 -246q0 -154 46 -265 q47 -115 131 -188q85 -75 206 -112q120 -37 273 -37zM868 2180q0 -108 30 -195q30 -88 75 -155q46 -69 100 -120q55 -52 103 -88q102 38 186 81q83 43 142 105q58 61 90 151t32 221q0 384 -364 384q-210 0 -302 -96q-92 -97 -92 -288z" />
<glyph unicode="'" horiz-adv-x="738" d="M172 2682h394l-124 -962h-148z" />
<glyph unicode="(" horiz-adv-x="1364" d="M566 988q0 -157 8 -335q7 -157 31 -326q22 -157 68 -308q45 -149 119 -280q74 -132 182 -244q110 -115 258 -199v-168q-268 142 -465 309q-198 168 -328 386q-130 219 -195 503q-64 281 -64 662q0 380 64 661q64 283 195 501q129 216 328 384q193 164 465 308v-168 q-226 -130 -358 -315q-131 -184 -201 -406q-68 -218 -88 -467q-19 -240 -19 -498z" />
<glyph unicode=")" horiz-adv-x="1364" d="M132 -872v168q148 84 258 199q108 112 182 244q74 131 119 280q46 151 68 308q24 169 31 326q8 178 8 335q0 258 -19 498q-20 249 -88 467q-70 222 -201 406q-132 185 -358 315v168q270 -145 464 -308q199 -167 329 -384q131 -218 195 -501q64 -281 64 -661 q0 -381 -64 -662q-65 -284 -195 -503q-131 -219 -329 -386q-197 -166 -464 -309z" />
<glyph unicode="*" d="M200 2130l128 286l630 -388l-86 654h312l-94 -654l634 380l128 -282l-664 -196l664 -194l-128 -282l-634 376l94 -650h-312l86 656l-630 -390l-128 286l656 198z" />
<glyph unicode="+" horiz-adv-x="2310" d="M1258 1258v-852h-206v852h-848v204h848v852h206v-852h852v-204h-852z" />
<glyph unicode="," horiz-adv-x="1024" d="M766 98q0 -118 -33 -229t-106 -205q-72 -92 -189 -170q-114 -76 -282 -124v154q182 59 267 142q85 84 85 194q0 35 -20 61q-17 23 -50 44q-24 16 -65 37q-37 19 -65 43q-32 27 -50 62q-20 38 -20 93q0 108 68 165t174 57q56 0 108 -21q51 -20 91 -62q39 -41 63 -102 t24 -139z" />
<glyph unicode="-" horiz-adv-x="1364" d="M152 812v306h1064v-306h-1064z" />
<glyph unicode="." horiz-adv-x="1024" d="M754 184q0 -52 -19 -94q-20 -44 -51 -77q-30 -32 -77 -52q-44 -19 -95 -19q-54 0 -96 19q-46 21 -76 52q-31 33 -51 77q-19 42 -19 94q0 51 19 95q20 46 51 77t76 51q42 19 96 19q51 0 95 -19q46 -20 77 -51t51 -77q19 -44 19 -95z" />
<glyph unicode="/" horiz-adv-x="1138" d="M200 -40h-200l942 2740h196z" />
<glyph unicode="0" d="M1892 1352q0 -334 -53 -596q-52 -259 -161 -437q-108 -177 -274 -268t-392 -91q-424 0 -640 356t-216 1036q0 666 216 1019t656 353q424 0 644 -349t220 -1023zM1524 1352q0 292 -25 514q-25 226 -84 381t-158 236t-245 81q-148 0 -243 -81t-149 -236t-75 -381t-21 -514 t21 -517t75 -388q54 -158 149 -244q94 -85 243 -85q147 0 245 85q100 86 158 244q59 159 84 388q25 225 25 517z" />
<glyph unicode="1" d="M1254 160l548 -54v-106h-1442v106l550 54v2188l-542 -194v106l782 444h104v-2544z" />
<glyph unicode="2" d="M1822 0h-1642v294l371 337l304 278q140 134 236 247q101 118 168 246q67 126 100 276q33 148 33 334q0 260 -118 396t-386 136q-60 0 -119 -9q-60 -9 -113 -24q-59 -16 -101 -34q-49 -20 -83 -39l-70 -328h-132v516q142 34 299 61q144 25 319 25q440 0 661 -183t221 -517 q0 -166 -43 -304q-44 -141 -123 -269q-78 -127 -196 -254q-121 -131 -264 -259l-325 -285l-377 -333h1380v-308z" />
<glyph unicode="3" d="M1888 730q0 -184 -64 -325q-65 -145 -185 -242q-121 -98 -298 -151q-175 -52 -403 -52q-198 0 -384 24q-182 23 -336 62l-22 564h132l90 -376q42 -23 94 -40q65 -22 125 -35q67 -15 138 -24t131 -9q188 0 305 46q119 47 188 129q70 83 95 198q26 118 26 251 q0 154 -44 259q-43 101 -121 166q-77 64 -180 92q-106 29 -221 35l-286 16v164l286 18q226 12 334 140t108 388q0 130 -27 227t-85 161q-59 65 -151 96q-94 32 -227 32q-60 0 -121 -9t-117 -24q-61 -16 -104 -34q-48 -19 -84 -39l-70 -328h-132v516q58 15 140 34 q72 17 146 27q77 11 160 18q78 7 182 7q422 0 641 -162t219 -498q0 -127 -34 -235q-35 -110 -106 -193q-72 -84 -183 -141q-109 -56 -263 -79q363 -42 536 -209q172 -166 172 -465z" />
<glyph unicode="4" d="M1620 590v-590h-344v590h-1196v266l1310 1840h230v-1820h364v-286h-364zM1276 2226h-10l-960 -1350h970v1350z" />
<glyph unicode="5" d="M970 1568q224 0 396 -45q173 -45 288 -139q118 -96 175 -239q59 -147 59 -347q0 -190 -57 -344q-57 -155 -175 -264q-119 -110 -297 -170q-179 -60 -421 -60q-188 0 -357 21q-166 21 -321 65l-22 564h132l90 -376q42 -23 87 -40q55 -21 111 -35q61 -15 124 -24 q64 -9 124 -9q185 0 305 47q118 46 188 133q70 86 95 206q26 122 26 266q0 156 -27 272t-99 194t-197 117t-321 39q-121 0 -208 -16q-99 -18 -148 -32h-192v1330h1360v-306h-1180v-856l81 16q47 8 100 15q56 8 124 12q77 5 157 5z" />
<glyph unicode="6" d="M1926 832q0 -206 -53 -370q-52 -160 -157 -274q-102 -111 -257 -170q-152 -58 -353 -58q-219 0 -393 86q-173 86 -292 257q-119 172 -182 426q-63 255 -63 595q0 362 83 626q83 262 222 432q141 171 321 250q183 80 378 80q146 0 304 -20q148 -19 278 -50v-462h-132 l-70 274q-35 19 -83 36q-41 15 -98 28q-45 11 -102 19q-48 7 -97 7q-142 0 -255 -68q-112 -67 -195 -206q-83 -138 -129 -346q-48 -214 -55 -490q142 75 315 124q171 48 339 48q167 0 303 -47q133 -46 229 -143q94 -96 144 -242q50 -147 50 -342zM1098 118q128 0 216 42 t142 127q55 87 77 212q23 130 23 295q0 329 -103 474q-104 146 -327 146q-134 0 -285 -26q-145 -25 -297 -74q0 -292 31 -510q31 -222 99 -375q67 -151 172 -232q103 -79 252 -79z" />
<glyph unicode="7" d="M402 2048h-132v634h1660v-154l-1196 -2528h-258l1174 2376h-1178z" />
<glyph unicode="8" d="M1810 2028q0 -219 -107 -373q-107 -153 -289 -233q110 -41 196 -104q88 -64 151 -151q62 -86 97 -198q34 -109 34 -245q0 -380 -214 -572t-666 -192q-428 0 -642 189t-214 575q0 265 128 441q126 174 346 257q-172 79 -283 232q-109 151 -109 374q0 159 49 287t147 220 q96 90 246 140q147 49 348 49q192 0 338 -48t245 -138q100 -91 149 -219q50 -130 50 -291zM1532 724q0 144 -26 259q-26 113 -87 191t-161 118q-99 40 -246 40q-149 0 -244 -40q-97 -41 -152 -118q-55 -78 -78 -191q-22 -110 -22 -259q0 -151 22 -261q22 -113 78 -189 q54 -75 152 -116q95 -40 244 -40q147 0 246 40q100 40 161 116t87 189q26 115 26 261zM1450 2028q0 118 -21 216t-71 169q-49 70 -134 111q-83 40 -208 40t-205 -40q-82 -41 -128 -111t-66 -169q-19 -95 -19 -216q0 -122 19 -216q20 -97 66 -164q47 -68 128 -104t205 -36 t208 36t134 104t71 164t21 216z" />
<glyph unicode="9" d="M132 1864q0 206 60 365q61 161 172 266q113 107 272 162t360 55q226 0 394 -80q164 -78 275 -247q109 -166 162 -425q53 -260 53 -612q0 -258 -39 -461q-39 -204 -109 -357q-71 -155 -167 -263q-97 -109 -213 -177q-115 -67 -247 -99q-128 -31 -269 -31q-172 0 -319 17 q-143 17 -279 51v464h130l70 -288q39 -19 85 -32q57 -17 98 -25q59 -12 104 -16q58 -5 103 -5q138 0 261 59q120 58 211 191q89 131 145 343q54 207 65 515q-135 -75 -286 -122q-154 -48 -332 -48q-168 0 -308 51t-241 152q-100 100 -156 251q-55 149 -55 346zM1000 2552 q-257 0 -379 -179q-121 -178 -121 -517q0 -164 33 -278q33 -115 96 -185q65 -72 154 -103q93 -32 209 -32q134 0 264 28q131 28 256 78q0 297 -28 517q-29 225 -88 372q-60 149 -158 224t-238 75z" />
<glyph unicode=":" horiz-adv-x="1138" d="M806 184q0 -52 -19 -94q-20 -44 -51 -77q-30 -31 -76 -52q-42 -19 -94 -19q-54 0 -96 19q-46 21 -76 52q-31 33 -51 77q-19 42 -19 94q0 51 19 95q20 46 51 77t76 51q42 19 96 19q52 0 94 -19q45 -20 76 -51t51 -77q19 -44 19 -95zM806 1680q0 -54 -19 -96 q-20 -45 -51 -76t-76 -51q-42 -19 -94 -19q-54 0 -96 19q-45 20 -76 51t-51 76q-19 42 -19 96q0 52 19 94q20 44 51 77q30 31 76 52q42 19 96 19q52 0 94 -19q46 -21 76 -52q31 -33 51 -77q19 -42 19 -94z" />
<glyph unicode=";" horiz-adv-x="1138" d="M806 1680q0 -54 -19 -96q-20 -45 -51 -76t-76 -51q-42 -19 -94 -19q-54 0 -96 19q-45 20 -76 51t-51 76q-19 42 -19 96q0 52 19 94q20 44 51 77q30 31 76 52q42 19 96 19q52 0 94 -19q46 -21 76 -52q31 -33 51 -77q19 -42 19 -94zM824 98q0 -118 -33 -229t-106 -205 q-72 -93 -190 -170q-116 -76 -283 -124v154q184 59 268 142q86 84 86 194q0 35 -20 61q-17 23 -50 44q-27 17 -66 37q-37 19 -66 43q-32 27 -50 62q-20 38 -20 93q0 108 69 165t173 57q56 0 109 -21t92 -62t63 -102t24 -139z" />
<glyph unicode="&#x37e;" horiz-adv-x="1138" d="M806 1680q0 -54 -19 -96q-20 -45 -51 -76t-76 -51q-42 -19 -94 -19q-54 0 -96 19q-45 20 -76 51t-51 76q-19 42 -19 96q0 52 19 94q20 44 51 77q30 31 76 52q42 19 96 19q52 0 94 -19q46 -21 76 -52q31 -33 51 -77q19 -42 19 -94zM824 98q0 -118 -33 -229t-106 -205 q-72 -93 -190 -170q-116 -76 -283 -124v154q184 59 268 142q86 84 86 194q0 35 -20 61q-17 23 -50 44q-27 17 -66 37q-37 19 -66 43q-32 27 -50 62q-20 38 -20 93q0 108 69 165t173 57q56 0 109 -21t92 -62t63 -102t24 -139z" />
<glyph unicode="&#x3c;" horiz-adv-x="2310" d="M204 1310v100l1906 938v-206l-1618 -782l1618 -782v-206z" />
<glyph unicode="=" horiz-adv-x="2310" d="M2110 1052v-204h-1906v204h1906zM2110 1872v-204h-1906v204h1906z" />
<glyph unicode="&#x3e;" horiz-adv-x="2310" d="M208 372v206l1618 782l-1618 782v206l1906 -938v-100z" />
<glyph unicode="?" horiz-adv-x="1818" d="M880 700h-160l-52 668l286 58q69 13 132 49q61 35 104 102q44 69 68 172q24 105 24 259q0 148 -25 248q-25 101 -81 166q-55 64 -148 93t-226 29q-122 0 -219 -28q-100 -29 -169 -70l-70 -328h-132v508q144 39 281 62q141 24 309 24q425 0 636 -172q212 -173 212 -508 q0 -140 -33 -267q-33 -126 -108 -230q-74 -103 -195 -178q-120 -75 -294 -111l-114 -26zM1060 184q0 -52 -19 -94q-20 -44 -51 -77q-30 -31 -76 -52q-42 -19 -94 -19q-54 0 -96 19q-46 21 -76 52q-31 33 -51 77q-19 42 -19 94q0 51 19 95q20 46 51 77t76 51q42 19 96 19 q52 0 94 -19q45 -20 76 -51t51 -77q19 -44 19 -95z" />
<glyph unicode="@" horiz-adv-x="3772" d="M2916 -368q-113 -88 -229 -158q-128 -77 -266 -130q-149 -57 -316 -89q-171 -33 -377 -33q-362 0 -643 117t-474 321q-192 203 -293 478q-100 273 -100 586q0 284 65 546q65 260 186 482q121 221 294 403q170 179 387 308q213 127 465 196q251 69 531 69q350 0 614 -87 q265 -87 441 -247q178 -162 266 -386q89 -228 89 -504q0 -205 -56 -394q-55 -186 -154 -349q-97 -159 -232 -293q-133 -131 -290 -225q-158 -94 -328 -143q-174 -50 -346 -50q-27 0 -47 4q-24 5 -41 16q-17 12 -30 32q-12 20 -12 50q0 48 5 125q4 59 11 125 q-60 -60 -127 -116q-75 -63 -157 -114q-83 -52 -176 -87t-184 -35q-144 0 -223 109t-79 291q0 166 30 329q30 164 88 311q59 151 146 274q90 128 202 218q93 74 184 125q87 49 181 76q90 26 197 37q99 10 230 10h71q40 0 59 -1q36 -2 55 -4q45 -5 59 -7l-228 -1060 q-10 -41 -18 -92q-10 -66 -14 -97q-3 -21 -10 -89q-4 -37 -4 -70q0 -27 4 -47q5 -24 19 -40q15 -16 44 -27q27 -10 81 -10q129 0 244 50q113 49 207 137q93 87 166 205q72 115 122 253q50 135 75 280q26 148 26 289q0 259 -82 456q-83 199 -235 333t-370 205 q-216 70 -485 70q-258 0 -477 -67q-223 -68 -404 -187q-184 -121 -324 -289t-238 -372q-96 -200 -148 -436q-51 -233 -51 -483q0 -264 78 -506t239 -427t405 -296t576 -111q193 0 343 28q153 28 279 75q123 45 233 109q111 64 205 132zM2278 1614q-7 1 -19.5 2.5t-18.5 1.5 l-32 3q-11 1 -28 1q-58 0 -127 -6q-66 -6 -140 -23q-68 -16 -141 -47q-69 -30 -126 -80q-57 -51 -110 -139q-52 -86 -91 -199q-40 -116 -62 -242q-23 -133 -23 -268q0 -143 40 -220q40 -78 120 -78q74 0 147 22q79 24 146 55q68 32 132 74q57 37 103 77z" />
<glyph unicode="A" horiz-adv-x="2958" d="M922 106v-106h-882v106l304 54l914 2544h380l950 -2544l340 -54v-106h-1134v106l360 54l-266 774h-1056l-270 -774zM1352 2416l-460 -1302h934z" />
<glyph unicode="B" horiz-adv-x="2732" d="M1916 2032q0 116 -35 206q-34 88 -113 147q-80 60 -202 88q-127 29 -304 29h-414v-1014h438q186 0 308 39t193 110q72 72 100 171q29 102 29 224zM2118 764q0 140 -45 242q-44 101 -140 169q-93 67 -245 100q-150 33 -360 33h-480v-1128q92 -4 192 -6q59 -3 190 -5 q69 -1 206 -1q188 0 318 42q129 41 211 119q81 76 117 187q36 110 36 248zM118 0v106l344 54v2364l-344 52v106h1226q285 0 470 -43q190 -44 302 -125q114 -83 162 -199q48 -117 48 -263q0 -125 -41 -230q-41 -104 -114 -183q-74 -80 -175 -132q-105 -54 -222 -79 q176 -18 315 -70q142 -53 239 -135q99 -84 151 -197q53 -115 53 -254q0 -172 -59 -319q-58 -143 -185 -248q-125 -103 -324 -160q-198 -57 -478 -57q-224 0 -446 6t-410 6h-512z" />
<glyph unicode="C" horiz-adv-x="2732" d="M1548 -40q-327 0 -585 92q-256 91 -434 266q-177 174 -269 425q-92 252 -92 567q0 360 93 624q93 265 270 437q178 173 435 257q258 84 590 84q138 0 260 -9q112 -8 233 -23q101 -12 211 -32q75 -13 194 -38l12 -586h-132l-60 348q-142 87 -325 133q-186 47 -377 47 q-235 0 -417 -64q-184 -65 -309 -209q-125 -145 -193 -382q-67 -235 -67 -583q0 -304 66 -529q66 -227 190 -374q126 -150 303 -223q180 -74 407 -74q128 0 237 16q119 18 210 44q103 30 174 65q80 39 129 77l74 400h130l-12 -630q-90 -26 -192 -47q-115 -24 -230 -41 q-113 -17 -256 -28q-127 -10 -268 -10z" />
<glyph unicode="D" horiz-adv-x="2958" d="M2376 1360q0 298 -82 511q-83 217 -235 355q-155 141 -369 208q-218 68 -482 68h-360v-2314q60 -5 130 -6q45 -1 144 -5q49 -2 149 -4q50 -1 147 -1q254 0 435 75t297 224q115 148 171 371q55 220 55 518zM1336 2682q336 0 603 -70q269 -70 459 -228q189 -156 293 -410 q103 -251 103 -618q0 -328 -84 -582q-84 -253 -254 -428q-170 -174 -429 -264t-609 -90q-159 0 -249 1l-265 3q-126 1 -247 3q-78 1 -195 1h-344v106l344 54v2364l-344 52v106h1218z" />
<glyph unicode="E" horiz-adv-x="2502" d="M118 106l344 54v2364l-344 52v106h2012v-642h-132l-64 434q-76 9 -155 14q-92 6 -185 9q-59 2 -178 4q-56 1 -130 1h-438v-1048h724l62 320h128v-824h-128l-62 324h-724v-1094h528q124 0 234 3q131 4 198 7q99 5 151 10q63 6 93 12l114 496h132l-38 -708h-2142v106z" />
<glyph unicode="F" horiz-adv-x="2278" d="M848 1204v-1044l446 -54v-106h-1150v106l318 54v2364l-344 52v106h2012v-642h-132l-64 434q-76 9 -155 14q-92 6 -185 9q-59 2 -178 4q-56 1 -130 1h-438v-1118h790l62 320h122v-824h-122l-62 324h-790z" />
<glyph unicode="G" horiz-adv-x="2958" d="M2568 140q-226 -74 -482 -128q-248 -52 -538 -52q-318 0 -573 87t-435 258t-276 423t-96 582q0 703 353 1053q352 349 1035 349q256 0 495 -32q228 -30 447 -88v-576h-134l-54 332q-141 99 -331 151q-195 53 -407 53q-233 0 -417 -65q-182 -64 -309 -211 q-125 -144 -193 -383q-67 -235 -67 -579q0 -346 78 -577q78 -232 211 -369q133 -138 308 -196q174 -58 369 -58q101 0 195 13q95 13 182 33q80 18 151 44q69 25 104 46v762l-344 52v108h990v-108l-262 -52v-872z" />
<glyph unicode="H" horiz-adv-x="2958" d="M118 0v106l344 54v2364l-344 52v106h1074v-106l-344 -52v-1054h1262v1054l-344 52v106h1072v-106l-344 -52v-2364l344 -54v-106h-1072v106l344 54v1130h-1262v-1130l344 -54v-106h-1074z" />
<glyph unicode="I" horiz-adv-x="1364" d="M876 160l344 -54v-106h-1072v106l344 54v2364l-344 52v106h1072v-106l-344 -52v-2364z" />
<glyph unicode="J" horiz-adv-x="1594" d="M820 2524l-344 52v106h1032v-106l-304 -52v-1660q0 -184 -34 -320q-34 -137 -90 -238q-54 -98 -129 -167q-72 -66 -151 -107q-75 -39 -156 -56q-76 -16 -144 -16q-133 0 -235 16q-110 17 -179 44v488h132l60 -278q38 -46 108 -72q72 -26 154 -26q280 0 280 380v2012z" />
<glyph unicode="K" horiz-adv-x="2958" d="M2706 2682v-106l-310 -52l-916 -896l1146 -1468l290 -54v-106h-656l-1050 1356l-362 -290v-906l384 -54v-106h-1114v106l344 54v2364l-344 52v106h1074v-106l-344 -52v-1264l1284 1264l-266 52v106h840z" />
<glyph unicode="L" horiz-adv-x="2502" d="M1262 2576l-414 -52v-2352h528q245 0 408 14q154 13 218 26l124 558h130l-36 -770h-2102v106l344 54v2364l-344 52v106h1144v-106z" />
<glyph unicode="M" horiz-adv-x="3642" d="M1724 0h-70l-982 2306v-2146l360 -54v-106h-914v106l344 54v2364l-344 52v106h812l872 -2040l952 2040h768v-106l-344 -52v-2364l344 -54v-106h-1088v106l360 54v2146z" />
<glyph unicode="N" horiz-adv-x="2958" d="M2310 2524l-360 52v106h914v-106l-344 -52v-2524h-194l-1654 2412v-2252l360 -54v-106h-914v106l344 54v2364l-344 52v106h812l1380 -1986v1828z" />
<glyph unicode="O" horiz-adv-x="2958" d="M586 1344q0 -280 42 -506q42 -225 144 -386q102 -160 274 -247t432 -87t432 87q171 86 275 247q103 160 145 386t42 506q0 278 -42 502q-42 225 -145 381q-103 157 -275 241t-432 84t-432 -84t-274 -241t-144 -381t-42 -502zM168 1344q0 356 87 614q87 259 253 426 q168 169 410 248q246 80 560 80q304 0 549 -80q243 -79 413 -248t260 -426q90 -258 90 -614t-90 -617t-260 -431q-171 -171 -413 -253q-244 -83 -549 -83t-548 83q-242 83 -412 253t-260 431t-90 617z" />
<glyph unicode="P" horiz-adv-x="2278" d="M1716 1888q0 159 -35 276q-35 116 -114 191t-207 111t-316 36h-196v-1270h208q188 0 315 45t204 129q78 85 109 206q32 123 32 276zM848 1052v-892l426 -54v-106h-1130v106l318 54v2364l-344 52v106h1012q284 0 471 -61q189 -61 303 -168q114 -106 162 -251 q48 -144 48 -310q0 -163 -47 -316q-47 -152 -158 -268t-297 -186q-185 -70 -462 -70h-302z" />
<glyph unicode="Q" horiz-adv-x="2958" d="M586 1340q0 -280 42 -506t144 -385q103 -160 274 -245q174 -86 432 -86t432 86q171 85 275 245q103 158 145 385q42 226 42 506q0 278 -42 503t-145 382t-275 242q-171 85 -432 85t-432 -85q-173 -86 -274 -242q-102 -158 -144 -382q-42 -225 -42 -503zM168 1340 q0 356 87 615q87 260 253 427q167 168 410 249q244 81 560 81q306 0 549 -81q244 -81 413 -249q171 -169 260 -427q90 -259 90 -615q0 -253 -47 -461q-46 -204 -138 -362q-91 -156 -223 -269q-129 -110 -302 -182l100 -124q80 -101 160 -186q69 -73 139 -127q64 -49 125 -72 t120 -23q22 0 38 1l48 2l46 2q21 1 32 3v-132q-20 -9 -66 -22q-44 -12 -99 -24q-62 -13 -115 -20q-64 -8 -114 -8q-112 0 -205 29q-89 28 -178 92q-84 61 -178 164q-87 96 -205 243l-82 104q-36 -4 -77 -6q-54 -2 -91 -2q-308 0 -548 82q-243 83 -412 252q-170 170 -260 430 t-90 616z" />
<glyph unicode="R" horiz-adv-x="2732" d="M848 1176v-1016l406 -54v-106h-1110v106l318 54v2364l-344 52v106h1158q280 0 471 -50q188 -49 303 -143q114 -93 162 -225t48 -298q0 -154 -45 -275q-45 -123 -121 -213q-78 -93 -176 -153q-101 -62 -208 -93l726 -1072l290 -54v-106h-642l-754 1176h-482zM1862 1938 q0 159 -38 268q-37 107 -119 174q-80 65 -208 94q-125 28 -307 28h-342v-1146h354q184 0 310 33q125 33 204 104q77 69 112 181q34 108 34 264z" />
<glyph unicode="S" horiz-adv-x="2278" d="M278 722h130l70 -362q36 -46 106 -91q64 -41 151 -76q79 -31 175 -52q89 -19 180 -19q150 0 264 41q110 40 185 113q72 71 109 170q36 98 36 214q0 144 -61 238q-62 95 -160 159q-101 66 -225 110l-259 91q-131 46 -259 102q-124 54 -225 142q-98 85 -160 213 q-61 126 -61 313q0 156 60 283t176 216q117 89 285 137q169 48 385 48q194 0 376 -26q177 -25 328 -60v-558h-130l-70 328q-87 64 -216 106q-128 42 -288 42q-147 0 -255 -32q-107 -32 -177 -87q-69 -55 -104 -130q-34 -74 -34 -161q0 -131 61 -216q62 -86 160 -147 q100 -62 226 -105l260 -91q120 -42 260 -106q127 -58 226 -150q98 -91 160 -222q61 -129 61 -323q0 -186 -57 -336q-58 -151 -172 -257q-116 -107 -288 -164q-173 -57 -407 -57q-124 0 -244 12q-113 11 -226 32q-95 17 -196 46q-80 23 -156 52v620z" />
<glyph unicode="T" horiz-adv-x="2502" d="M630 0v106l426 54v2350h-102q-262 0 -440 -12q-182 -12 -252 -28l-54 -418h-134v630h2360v-630h-136l-54 418q-40 8 -107 14q-84 7 -165 11q-119 6 -205 8q-111 3 -227 3h-98v-2346l426 -54v-106h-1238z" />
<glyph unicode="U" horiz-adv-x="2958" d="M2318 2524l-360 52v106h914v-106l-344 -52v-1602q0 -186 -46 -357q-47 -174 -162 -307t-317 -216q-200 -82 -509 -82q-534 0 -799 241t-265 683v1640l-344 52v106h1072v-106l-344 -52v-1610q0 -164 39 -299q39 -136 124 -231q85 -96 220 -148q134 -52 327 -52 q211 0 360 52q151 53 247 146q97 94 142 228t45 296v1618z" />
<glyph unicode="V" horiz-adv-x="2958" d="M2912 2682v-106l-294 -52l-1078 -2586h-102l-1090 2586l-302 52v106h1084v-106l-360 -52l812 -1974l810 1974l-352 52v106h872z" />
<glyph unicode="W" horiz-adv-x="3866" d="M3624 2524l-876 -2586h-106l-696 1848l-714 -1848h-106l-888 2586l-234 52v106h1024v-106l-394 -52l638 -1890l722 1860h90l696 -1860l608 1890l-418 52v106h888v-106z" />
<glyph unicode="X" horiz-adv-x="2958" d="M634 160l332 -54v-106h-876v106l296 54l912 1212l-778 1152l-302 52v106h1106v-106l-340 -52l556 -828l622 828l-332 52v106h878v-106l-296 -52l-754 -1004l922 -1360l304 -54v-106h-1106v106l340 54l-704 1040z" />
<glyph unicode="Y" horiz-adv-x="2958" d="M1676 1056v-896l426 -54v-106h-1238v106l426 54v884l-942 1480l-302 52v106h1134v-106l-360 -52l770 -1238l732 1238l-340 52v106h872v-106l-294 -52z" />
<glyph unicode="Z" horiz-adv-x="2502" d="M196 188l1504 2322h-500q-262 0 -434 -12q-176 -12 -246 -28l-62 -422h-138v634h1826v-172l-1514 -2342h580q139 0 259 7q130 8 239 18q78 7 192 22q69 9 118 19l118 512h140l-54 -746h-2028v188z" />
<glyph unicode="[" horiz-adv-x="1364" d="M304 -548v3390h912v-94l-594 -82v-3038l594 -82v-94h-912z" />
<glyph unicode="\" horiz-adv-x="1138" d="M0 2700h196l942 -2740h-200z" />
<glyph unicode="]" horiz-adv-x="1364" d="M148 -548v94l594 82v3038l-594 82v94h912v-3390h-912z" />
<glyph unicode="^" horiz-adv-x="1922" d="M914 2682h98l856 -1904h-206l-700 1618l-700 -1618h-204z" />
<glyph unicode="_" d="M-32 -528v204h2112v-204h-2112z" />
<glyph unicode="`" horiz-adv-x="1364" d="M946 2238l-708 536v74h426l392 -544v-66h-110z" />
<glyph unicode="a" horiz-adv-x="1818" d="M930 1922q128 0 238 -24q112 -25 190 -82q81 -59 125 -157q45 -99 45 -249v-1270l234 -50v-90h-516l-38 188q-28 -28 -81 -70q-51 -40 -123 -75q-74 -35 -167 -59q-95 -24 -211 -24q-136 0 -229 42q-94 42 -149 117q-56 76 -80 178q-24 103 -24 223q0 124 30 215t84 153 q55 63 127 101q73 39 158 61t180 30q110 9 191 10l282 8v294q0 81 -14 153q-13 69 -47 119q-33 49 -89 78q-55 28 -140 28q-95 0 -194 -26q-98 -26 -172 -68l-68 -234h-112v410q125 27 269 49q139 21 301 21zM1196 958l-262 -8q-124 -5 -204 -23q-89 -20 -142 -65 q-56 -46 -84 -126q-28 -78 -28 -204q0 -352 286 -352q138 0 235 31q101 32 199 79v668z" />
<glyph unicode="b" d="M1532 992q0 205 -37 343q-38 140 -106 225q-69 86 -166 123q-96 37 -215 37q-54 0 -103 -4q-60 -5 -109 -13q-56 -9 -104 -21q-53 -13 -86 -28v-1490q84 -16 192 -24q115 -8 210 -8q276 0 400 216q124 215 124 644zM274 2704l-274 48v90h606v-672q0 -54 -1 -87l-2 -102 q-2 -72 -4 -106q-4 -71 -5 -101q88 69 219 113q128 43 285 43q383 0 589 -233q205 -232 205 -705q0 -240 -52 -429q-53 -193 -160 -325q-109 -134 -273 -206q-165 -72 -391 -72q-91 0 -195 11q-93 10 -195 29q-101 19 -186 43q-93 26 -166 55v2606z" />
<glyph unicode="c" horiz-adv-x="1818" d="M1692 114q-56 -40 -124 -67q-73 -29 -154 -48q-74 -17 -171 -29q-84 -10 -173 -10q-246 0 -417 67q-174 68 -283 195t-162 313q-52 183 -52 419q0 258 67 441q68 187 187 304q122 120 285 175q166 56 361 56q166 0 314 -19q159 -21 276 -43v-524h-110l-86 332 q-75 43 -179 68q-107 26 -219 26q-129 0 -229 -47q-99 -47 -168 -147q-70 -102 -104 -254q-35 -157 -35 -368q0 -180 30 -325q30 -146 106 -247q77 -103 205 -158q130 -56 327 -56q61 0 139 5q63 4 138 14q67 9 126 21q53 11 105 26v-120z" />
<glyph unicode="d" d="M1446 140q-86 -68 -219 -125q-129 -55 -309 -55q-770 0 -770 962q0 234 51 421q51 188 157 318q107 132 268 200q162 69 384 69q102 0 217 -12q118 -12 221 -34q-5 23 -6 65q-2 51 -3 92l-2 97q-1 32 -1 78v488l-316 48v90h648v-2702l232 -50v-90h-528zM508 922 q0 -212 37 -354q38 -145 105 -233q68 -89 164 -128t214 -39q117 0 226 23q102 22 180 55v1486q-79 16 -194 25q-110 9 -212 9q-266 0 -393 -214t-127 -630z" />
<glyph unicode="e" horiz-adv-x="1818" d="M520 946v-36q0 -146 21 -280t84 -237q62 -102 177 -164q113 -61 300 -61q53 0 126 5q44 3 132 13q67 8 128 18q70 12 114 22v-112q-46 -30 -111 -57q-60 -25 -143 -49q-71 -21 -166 -35q-85 -13 -178 -13q-236 0 -395 64q-161 65 -261 190q-100 126 -144 312 q-44 188 -44 428q0 492 206 734t588 242q152 0 281 -40q133 -41 229 -134q98 -95 155 -252q57 -158 57 -394v-164h-1156zM954 1770q-111 0 -193 -47q-81 -46 -134 -133q-52 -85 -78 -209q-25 -121 -25 -275h804q0 148 -17 275q-17 124 -60 209q-45 87 -115 133 q-73 47 -182 47z" />
<glyph unicode="f" horiz-adv-x="1364" d="M450 1712h-324v98l324 78v132q0 214 43 373q44 162 124 270q81 109 198 165q118 56 263 56q86 0 160 -11q70 -11 126 -27v-410h-98l-90 246q-34 21 -70 31q-39 11 -94 11q-71 0 -114 -31q-45 -33 -70 -96q-26 -65 -36 -165q-10 -96 -10 -240v-312h500v-168h-500v-1556 l406 -66v-90h-1016v90l278 66v1556z" />
<glyph unicode="g" d="M1740 1286q0 -323 -194 -490q-193 -166 -558 -166q-82 0 -165 9q-85 9 -139 21l-126 -262q6 -34 78 -64t180 -30h556q304 0 451 -132t147 -364q0 -129 -53 -255q-52 -123 -172 -222q-118 -97 -311 -156q-194 -59 -472 -59q-212 0 -364 35q-147 34 -244 97 q-94 61 -136 144q-42 82 -42 178q0 68 25 125q26 60 70 114q41 51 107 107q51 43 134 104q-37 12 -83 39q-48 28 -89 69q-42 42 -70 97t-28 123l316 356q-316 148 -316 582q0 159 52 279q53 122 149 202q99 82 239 122q144 41 322 41q56 0 114 -6q68 -7 109 -13 q58 -8 89 -16q39 -9 56 -15l442 222l70 -86l-278 -288q69 -78 101 -191q33 -115 33 -251zM1658 -254q0 114 -70 178t-212 64h-728q-42 -36 -77 -83t-60 -99t-39 -105q-14 -54 -14 -103q0 -71 23 -131q23 -59 80 -101t155 -66t246 -24q179 0 311 35q131 35 217 98 q87 64 127 149q41 87 41 188zM992 782q217 0 309 125q91 124 91 379q0 126 -21 219q-21 92 -68 153q-47 60 -123 90t-184 30q-110 0 -187 -30t-126 -90q-48 -58 -71 -153q-22 -91 -22 -219q0 -129 22 -221q23 -96 70 -158q48 -63 124 -94q75 -31 186 -31z" />
<glyph unicode="h" d="M652 2028q0 -41 -1 -68l-2 -83q-2 -54 -4 -83q-3 -45 -7 -66q56 32 136 68q78 35 167 66q83 29 174 49q85 19 159 19q108 0 198 -30q91 -30 155 -96q65 -66 102 -172q37 -105 37 -256v-1236l228 -50v-90h-810v90l250 50v1212q0 166 -81 255t-251 89q-56 0 -119 -6 q-47 -4 -125 -14q-49 -6 -116 -19q-21 -4 -54 -11t-36 -8v-1498l254 -50v-90h-824v90l238 50v2564l-280 48v90h612v-814z" />
<glyph unicode="i" horiz-adv-x="1138" d="M758 2494q0 -43 -17 -83q-16 -38 -47 -69t-70 -47q-42 -17 -84 -17q-43 0 -83 17q-38 16 -69 47t-47 69q-17 40 -17 83q0 42 17 84q16 39 47 70t69 47q40 17 83 17q42 0 84 -17q39 -16 70 -47t47 -70q17 -42 17 -84zM738 140l322 -50v-90h-974v90l320 50v1600l-266 50v90 h598v-1740z" />
<glyph unicode="j" horiz-adv-x="1138" d="M786 2494q0 -43 -17 -83q-16 -38 -47 -69t-69 -47q-40 -17 -83 -17q-45 0 -85 17q-38 16 -69 47t-47 69q-17 40 -17 83q0 42 17 84q16 39 47 70t69 47q40 17 85 17q43 0 83 -17q38 -16 69 -47t47 -70q17 -42 17 -84zM766 -78q0 -213 -43 -363q-44 -153 -122 -247 q-81 -97 -188 -140q-111 -44 -241 -44q-91 0 -152 10q-81 13 -138 26v398h94l54 -218q67 -56 166 -56q118 0 178 126t60 406v1920l-282 50v90h614v-1958z" />
<glyph unicode="k" d="M688 906l770 830l-196 54v90h664v-90l-234 -46l-536 -548l688 -1060l204 -46v-90h-770v90l172 50l-516 810l-246 -270v-540l200 -50v-90h-770v90l238 50v2564l-278 48v90h610v-1936z" />
<glyph unicode="l" horiz-adv-x="1138" d="M734 140l322 -50v-90h-974v90l320 50v2564l-320 48v90h652v-2702z" />
<glyph unicode="m" horiz-adv-x="3186" d="M652 1728q56 32 133 68t159 66q80 29 166 49q82 19 156 19q139 0 255 -52q117 -52 175 -166q66 37 154 75q96 42 187 71q106 34 192 52q97 20 171 20q108 0 196 -30t151 -96q64 -67 98 -172q35 -108 35 -256v-1236l242 -50v-90h-854v90l280 50v1200q0 166 -75 255 t-245 89q-47 0 -121 -8q-69 -8 -138 -18q-85 -13 -132 -23l-105 -21q34 -106 34 -238v-1236l282 -50v-90h-892v90l278 50v1200q0 167 -85 255q-86 89 -255 89q-56 0 -117 -6q-45 -4 -120 -14q-47 -6 -112 -19l-89 -19v-1486l282 -50v-90h-852v90l238 50v1600l-238 50v90h550 z" />
<glyph unicode="n" d="M648 1728q56 32 133 68q75 35 161 66q80 29 168 49q82 19 156 19q108 0 198 -30q91 -30 155 -96q65 -66 102 -172q37 -105 37 -256v-1236l228 -50v-90h-810v90l250 50v1200q0 166 -81 261t-251 95q-56 0 -118 -6q-46 -4 -122 -14q-48 -6 -113 -19l-89 -19v-1498l254 -50 v-90h-812v90l226 50v1600l-226 50v90h536z" />
<glyph unicode="o" d="M1892 950q0 -478 -214 -734t-666 -256q-424 0 -640 254t-216 736q0 476 216 728t656 252q429 0 646 -247q218 -248 218 -733zM1532 950q0 191 -26 347q-26 153 -87 258q-62 105 -161 160q-100 55 -246 55q-149 0 -244 -55q-97 -56 -152 -160q-56 -105 -78 -258 q-22 -150 -22 -347q0 -199 22 -350q22 -154 78 -261t152 -164t244 -57q146 0 246 57q99 56 161 164q61 107 87 261q26 158 26 350z" />
<glyph unicode="p" d="M304 1740l-214 50v90h528l4 -110q43 37 99 65q60 30 123 50q65 21 140 33q74 12 150 12q175 0 316 -62q140 -62 238 -185q98 -124 149 -304q51 -181 51 -417q0 -232 -52 -415q-53 -186 -156 -316q-104 -131 -261 -201q-156 -70 -367 -70q-97 0 -215 11q-113 11 -215 33 q0 -7 5 -55q2 -22 4 -64q0 -11 0.5 -31t1.5 -30q1 -19 1 -46v-508l328 -48v-94h-896v94l238 48v2470zM1528 962q0 206 -34 348q-34 143 -99 235q-64 91 -159 133q-94 42 -212 42q-92 0 -205 -17q-104 -16 -185 -49v-1502q79 -16 186 -25q102 -9 204 -9q264 0 384 219 t120 625z" />
<glyph unicode="q" d="M1626 1970h140v-2700l208 -48v-94h-798v94l258 48v522q0 86 4 163q5 92 16 171q-89 -70 -223 -118q-133 -48 -313 -48q-394 0 -582 251t-188 723q0 232 52 415q53 186 157 314q105 129 266 198t377 69q102 0 221 -12q123 -12 225 -34zM508 934q0 -201 35 -349 q34 -144 101 -238q66 -93 163 -136q96 -43 221 -43q55 0 104 4q62 5 111 13q55 9 105 21q53 13 86 28v1498q-79 16 -194 25q-110 9 -212 9q-265 0 -392 -214q-128 -215 -128 -618z" />
<glyph unicode="r" horiz-adv-x="1364" d="M1328 1930v-508h-86l-116 220q-51 0 -120 -8q-62 -7 -128 -21q-70 -15 -123 -31q-58 -18 -103 -38v-1404l322 -50v-90h-892v90l238 50v1600l-238 50v90h548l18 -234q46 38 126 87q78 49 173 93q96 45 186 74q93 30 165 30h30z" />
<glyph unicode="s" horiz-adv-x="1594" d="M1446 528q0 -126 -39 -231t-123 -180q-85 -76 -217 -116q-135 -41 -321 -41q-89 0 -185 11q-84 10 -169 26q-82 16 -136 31q-66 19 -84 26v462h90l98 -262q61 -55 160 -96q96 -40 230 -40q186 0 287 81t101 251q0 100 -42 165q-43 66 -110 109q-70 45 -155 73l-178 59 q-85 28 -178 68q-87 37 -155 98t-110 150q-42 90 -42 224q0 129 46 228q46 100 129 168q84 69 198 103q117 35 253 35q139 0 266 -19q138 -21 250 -43v-410h-94l-84 218q-52 46 -142 70t-192 24q-161 0 -247 -80q-85 -79 -85 -216q0 -92 42 -151q43 -60 111 -100 q72 -42 157 -71l180 -62q83 -28 180 -73q88 -40 157 -105q69 -64 111 -156t42 -228z" />
<glyph unicode="t" horiz-adv-x="1138" d="M668 -40q-192 0 -287 114q-95 115 -95 320v1318h-246v90l250 78l202 426h126v-426h430v-168h-430v-1282q0 -129 59 -196q59 -66 155 -66q77 0 147 10q83 12 135 22v-130q-35 -23 -79 -40q-53 -21 -108 -35q-53 -13 -125 -25q-63 -10 -134 -10z" />
<glyph unicode="u" d="M626 536q0 -166 75 -255t245 -89q112 0 232 15q116 14 232 47v1486l-284 50v90h614v-1740l238 -50v-90h-548l-16 152q-58 -32 -138 -66q-69 -30 -167 -62q-84 -27 -175 -46q-88 -18 -160 -18q-108 0 -196 30t-151 96q-64 67 -98 171q-35 107 -35 255v1228l-240 50v90h572 v-1344z" />
<glyph unicode="v" d="M1868 1748l-754 -1788h-148l-774 1780l-192 50v90h876v-90l-298 -54l548 -1298l524 1302l-298 50v90h696v-90z" />
<glyph unicode="w" horiz-adv-x="2958" d="M2732 1748l-630 -1788h-156l-464 1240l-458 -1240h-148l-650 1780l-222 50v90h894v-90l-312 -54l446 -1270l454 1226h168l452 -1234l426 1282l-308 50v90h716v-90z" />
<glyph unicode="x" d="M1778 132l220 -42v-90h-852v90l250 46l-434 666l-508 -670l258 -42v-90h-676v90l218 32l618 816l-544 802l-222 50v90h852v-90l-250 -54l362 -540l416 544l-258 50v90h676v-90l-216 -42l-528 -684z" />
<glyph unicode="y" d="M1836 1748l-734 -1866q-68 -172 -130 -302q-66 -140 -147 -243t-185 -162t-242 -59q-39 0 -91 2q-27 1 -73 7q-19 2 -68 11q-39 7 -76 16v406h94l66 -192q61 -46 172 -46q85 0 156 38q70 37 129 107q60 71 107 163q51 100 92 208l52 144l-716 1760l-192 50v90h872v-90 l-296 -54l508 -1314l492 1318l-294 50v90h700v-90z" />
<glyph unicode="z" horiz-adv-x="1818" d="M110 0v90l1032 1630h-442q-49 0 -111 -5q-49 -4 -104 -14q-52 -10 -87 -22q-41 -15 -58 -29l-62 -270h-94v500h1388v-98l-1032 -1622h550q58 0 115 7q66 8 118 19t106 29q49 16 79 39l102 394h94l-50 -648h-1544z" />
<glyph unicode="{" horiz-adv-x="1966" d="M1324 -548q-129 0 -228 41q-98 41 -163 118t-98 185t-33 244v590q0 124 -29 214q-28 88 -84 145q-55 56 -135 85q-76 27 -182 32v90q103 2 182 30q80 29 135 85q56 57 84 145q29 90 29 212v588q0 283 130 434q131 152 392 152h270v-94h-124q-183 0 -259 -109 q-77 -110 -77 -321v-660q0 -99 -29 -184q-28 -84 -80 -149q-51 -64 -122 -108q-69 -43 -153 -61v-6q86 -20 156 -63t121 -108q50 -63 79 -149q28 -83 28 -186v-668q0 -211 77 -321q76 -109 259 -109h124v-94h-270z" />
<glyph unicode="|" horiz-adv-x="820" d="M308 -884v3726h204v-3726h-204z" />
<glyph unicode="}" horiz-adv-x="1966" d="M372 -548v94h124q183 0 259 109q77 110 77 321v668q0 103 28 186q29 86 79 149q51 65 121 108t156 63v6q-84 18 -153 61q-71 44 -122 108q-52 65 -80 149q-29 85 -29 184v660q0 211 -77 321q-76 109 -259 109h-124v94h272q259 0 390 -152q130 -151 130 -434v-588 q0 -122 29 -212q28 -86 85 -145q55 -56 135 -85t181 -30v-90q-105 -5 -181 -32q-80 -29 -135 -85q-57 -59 -85 -145q-29 -90 -29 -214v-590q0 -136 -33 -244t-98 -185t-163 -118q-99 -41 -226 -41h-272z" />
<glyph unicode="~" horiz-adv-x="2216" d="M1560 1004q-92 0 -176 36q-80 34 -163 89q-73 48 -152 116q-85 72 -143 116q-73 54 -138 89q-68 36 -136 36q-80 0 -140 -29q-57 -28 -98 -89q-41 -60 -63 -151q-23 -95 -35 -213h-202q12 122 39 245q27 124 85 222q58 99 157 160q98 61 257 61q96 0 182 -36t165 -90 q76 -52 153 -116l143 -116q69 -54 135 -90t130 -36q80 0 136 32q55 31 95 94q40 62 62 152q22 89 39 206h206q-17 -124 -45 -244t-88 -221q-59 -100 -156 -161q-98 -62 -249 -62z" />
<glyph unicode="&#xa1;" horiz-adv-x="1364" d="M438 1680q0 52 19 94q20 44 51 77q30 31 76 52q42 19 96 19q51 0 95 -19q47 -20 77 -52q31 -33 51 -77q19 -42 19 -94q0 -54 -19 -96q-20 -45 -51 -76t-77 -51q-44 -19 -95 -19q-54 0 -96 19q-45 20 -76 51t-51 76q-19 42 -19 96zM898 -820h-436l124 1906h188z" />
<glyph unicode="&#xa2;" d="M1072 372q-219 14 -373 87q-155 74 -254 201q-98 127 -145 306q-46 177 -46 402q0 243 61 420q62 179 169 297q109 120 258 181q150 62 330 72v344h164v-340q145 -6 270 -22q141 -18 238 -38v-524h-110l-86 330q-58 33 -142 58q-76 23 -170 34v-1598h46q61 0 139 5 q63 4 138 14q67 9 126 21q53 11 105 26v-120q-49 -38 -110 -62q-74 -29 -137 -46q-82 -22 -151 -31q-87 -12 -156 -17v-372h-164v372zM614 1368q0 -154 21 -282q21 -130 73 -227q54 -101 140 -164q89 -65 224 -93v1578q-221 -29 -339 -224q-119 -197 -119 -588z" />
<glyph unicode="&#xa3;" d="M1922 308v-308h-1676v234l143 127q71 61 139 140q64 74 106 163q42 88 42 196q0 94 -33 192q-31 93 -77 206h-324v164h254q-58 135 -95 275q-39 145 -39 315q0 336 209 518t625 182q91 0 160 -7q74 -7 144 -18t138 -27l144 -34v-516h-130l-70 328q-68 39 -168 73 q-98 33 -218 33q-230 0 -344 -135t-114 -397q0 -190 18 -330q19 -150 40 -260h556v-164h-524q8 -55 22 -165q10 -79 10 -175q0 -108 -24 -195q-24 -88 -67 -160q-45 -76 -101 -135q-58 -62 -126 -120h1380z" />
<glyph unicode="&#xa4;" d="M246 1352q0 136 42 256q43 122 118 218l-214 214l148 148l208 -218q101 77 220 120q121 44 256 44q131 0 254 -44q122 -44 222 -120l216 218l144 -144l-218 -218q76 -102 120 -222q44 -121 44 -252q0 -135 -44 -256q-43 -119 -120 -220l218 -212l-144 -144l-216 214 q-102 -79 -222 -119q-123 -41 -254 -41q-136 0 -256 42t-220 118l-212 -214l-144 144l214 212q-76 100 -118 220t-42 256zM438 1352q0 -119 47 -227q47 -107 126 -186t186 -126q108 -47 227 -47q121 0 229 47t187 126q81 81 127 186q47 108 47 227q0 121 -47 229 q-47 107 -127 187t-187 127q-108 47 -229 47q-119 0 -227 -47q-105 -46 -186 -127q-79 -79 -126 -187t-47 -229z" />
<glyph unicode="&#xa5;" d="M1770 786v-164h-558v-462l344 -54v-106h-1072v106l344 54v462h-558v164h558v258l-30 70h-528v164h460l-526 1246l-200 52v106h906v-106l-262 -52l478 -1238l492 1238l-246 52v106h672v-106l-208 -52l-530 -1246h464v-164h-534l-24 -58v-270h558z" />
<glyph unicode="&#xa6;" horiz-adv-x="820" d="M308 1602v1240h204v-1240h-204zM308 -884v1244h204v-1244h-204z" />
<glyph unicode="&#xa7;" d="M1684 58q0 -126 -42 -231q-42 -106 -130 -180q-88 -75 -225 -117t-325 -42q-90 0 -189 11q-96 11 -176 27q-90 18 -142 31q-64 16 -87 25v464h90l78 -264q28 -27 77 -52q45 -23 103 -42q59 -19 120 -29q68 -11 130 -11q90 0 168 20q74 19 130 61q54 41 83 104 q29 64 29 147q0 100 -45 176q-44 75 -119 136q-69 57 -169 112l-193 105q-93 50 -193 112q-95 59 -169 136t-119 176t-45 231q0 103 37 187q38 87 101 150q66 66 150 110q87 46 186 65q-78 40 -157 95q-74 52 -132 122q-57 69 -90 156t-33 195q0 129 46 228q46 100 129 168 q84 69 198 103q117 35 253 35q131 0 263 -14q126 -13 253 -36v-422h-94l-66 218q-24 21 -66 40t-86 30q-47 12 -98 18q-52 6 -102 6q-163 0 -248 -80q-84 -80 -84 -216q0 -95 46 -162q48 -69 120 -121q74 -53 169 -98l195 -91q100 -46 195 -99q94 -52 169 -124 q73 -70 120 -163q46 -91 46 -218q0 -111 -38 -205q-37 -92 -107 -165q-69 -72 -164 -120t-207 -72q95 -55 172 -110q82 -58 145 -133q64 -77 101 -169q38 -96 38 -214zM1438 1160q0 79 -35 140q-33 57 -94 109q-54 45 -136 89q-74 39 -161 78q-82 -5 -149 -29 q-72 -26 -125 -70q-54 -45 -85 -106t-31 -135q0 -90 34 -154t93 -114t135 -93l160 -89q84 11 152 38q72 28 126 75q52 45 85 112q31 63 31 149z" />
<glyph unicode="&#xa8;" horiz-adv-x="1364" d="M1236 2388q0 -84 -56 -143t-140 -59q-43 0 -78 16q-38 17 -63 44q-26 28 -43 64q-16 35 -16 78q0 84 58 142t142 58q85 0 140 -58q56 -59 56 -142zM524 2388q0 -84 -56 -143t-140 -59q-43 0 -78 16q-37 17 -64 44t-44 64q-16 35 -16 78t16 78q17 38 44 63q28 26 64 43 q35 16 78 16q85 0 140 -58q56 -59 56 -142z" />
<glyph unicode="&#xa9;" horiz-adv-x="3112" d="M176 1340q0 194 49 369q50 178 139 331q89 152 215 280q125 126 279 216q153 89 330 139q174 49 368 49t369 -49q178 -50 331 -139t280 -216t216 -280t139 -331q49 -175 49 -369t-49 -368q-50 -177 -139 -330q-90 -154 -216 -279q-128 -126 -280 -215q-153 -89 -331 -139 q-175 -49 -369 -49q-288 0 -539 108t-438 295t-295 438t-108 539zM316 1340q0 -259 97 -484q97 -226 265 -395q167 -168 394 -266q225 -97 484 -97q260 0 485 97q228 98 396 266q170 170 267 395q98 228 98 484q0 172 -45 331t-126 297q-80 137 -194 252q-113 114 -252 195 q-142 82 -298 125q-161 44 -331 44q-256 0 -484 -98q-225 -97 -394 -266q-167 -167 -265 -395q-97 -225 -97 -485zM1590 516q-197 0 -353 56q-155 56 -262 161t-162 255q-55 149 -55 340q0 215 56 375q55 158 162 262q106 103 262 154t356 51q166 0 293 -19q150 -22 243 -41 l8 -374h-98l-38 210q-81 51 -185 77q-99 25 -215 25q-133 0 -234 -34q-103 -35 -173 -117q-71 -83 -107 -221t-36 -344q0 -365 140 -532q139 -166 398 -166q148 0 259 35q107 34 171 85l44 238h98l-8 -398q-109 -34 -253 -55q-155 -23 -311 -23z" />
<glyph unicode="&#xaa;" horiz-adv-x="1130" d="M562 2724q92 0 172 -17q75 -16 133 -58q54 -39 86 -107q31 -65 31 -162v-704l138 -30v-74h-348l-24 124q-20 -20 -54 -44q-41 -29 -85 -49q-51 -23 -110 -39q-60 -16 -133 -16q-84 0 -138 25q-57 26 -92 70t-52 107q-16 60 -16 134q0 112 46 179t119 103q74 36 163 48 q94 13 176 14l168 4v160q0 100 -46 161t-148 61q-58 0 -116 -15t-104 -43l-42 -118h-86v244q86 21 172 31q99 11 190 11zM742 2126l-156 -4q-66 -2 -117 -9q-53 -8 -86 -31q-35 -24 -53 -69t-18 -121q0 -108 42 -150t130 -42q79 0 140 23q52 20 118 55v348z" />
<glyph unicode="&#xab;" d="M234 992l668 712h162l-454 -778l454 -778h-162l-668 712v132zM1052 992l670 712h162l-456 -778l456 -778h-162l-670 712v132z" />
<glyph unicode="&#xac;" horiz-adv-x="2310" d="M2110 1462v-1056h-206v852h-1700v204h1906z" />
<glyph unicode="&#xad;" horiz-adv-x="1364" d="M152 812v306h1064v-306h-1064z" />
<glyph unicode="&#xae;" horiz-adv-x="3112" d="M176 1340q0 194 49 369q50 178 139 331q89 152 215 280q125 126 279 216q153 89 330 139q174 49 368 49t369 -49q178 -50 331 -139t280 -216t216 -280t139 -331q49 -175 49 -369t-49 -368q-50 -177 -139 -330q-90 -154 -216 -279q-128 -126 -280 -215q-153 -89 -331 -139 q-175 -49 -369 -49q-288 0 -539 108t-438 295t-295 438t-108 539zM316 1340q0 -259 97 -484q97 -226 265 -395q167 -168 394 -266q225 -97 484 -97q260 0 485 97q228 98 396 266q170 170 267 395q98 228 98 484q0 172 -45 331t-126 297q-80 137 -194 252q-113 114 -252 195 q-142 82 -298 125q-161 44 -331 44q-256 0 -484 -98q-225 -97 -394 -266q-167 -167 -265 -395q-97 -225 -97 -485zM1336 1250v-578l228 -34v-86h-692v86l192 34v1376l-208 32v82h660q167 0 287 -32q116 -31 195 -91q75 -58 112 -140q36 -81 36 -179q0 -154 -90 -266 t-266 -168l426 -614l168 -34v-86h-410l-458 698h-180zM1864 1716q0 95 -23 158q-22 61 -71 99q-47 37 -124 52q-76 15 -184 15h-126v-664h134q111 0 186 19q77 20 122 59q46 40 66 105q20 66 20 157z" />
<glyph unicode="&#xaf;" d="M2084 2904h-2118v188h2118v-188z" />
<glyph unicode="&#xb0;" horiz-adv-x="1638" d="M196 2102q0 128 48 242t132 198q83 83 197 133q111 49 243 49q129 0 242 -49q115 -50 198 -133t133 -198q49 -113 49 -242q0 -132 -49 -243q-50 -114 -133 -197q-84 -84 -198 -132t-242 -48q-130 0 -243 48t-197 132t-132 197t-48 243zM400 2102q0 -86 32 -164 q31 -75 89 -133q57 -57 132 -90t163 -33t165 33q78 34 133 90q58 59 88 133q32 78 32 164q0 87 -32 165q-31 76 -88 134q-55 56 -133 90q-77 33 -165 33t-163 -33t-132 -90t-89 -134q-32 -78 -32 -165z" />
<glyph unicode="&#xb1;" horiz-adv-x="2248" d="M1224 1258v-852h-206v852h-848v204h848v852h206v-852h852v-204h-852zM2076 204v-204h-1906v204h1906z" />
<glyph unicode="&#xb2;" horiz-adv-x="1228" d="M1134 1070h-998v192l219 200q97 88 173 164t130 145q55 71 89 144q36 79 52 163q17 91 17 200q0 149 -67 217q-67 69 -197 69q-68 0 -128 -20q-54 -18 -100 -46l-42 -196h-110v344q78 19 184 38q92 16 196 16q268 0 409 -111t141 -311q0 -150 -48 -262 q-48 -111 -143 -219q-95 -107 -233 -227l-318 -284h774v-216z" />
<glyph unicode="&#xb3;" horiz-adv-x="1228" d="M1150 1508q0 -111 -46 -196q-47 -86 -129 -146q-81 -59 -197 -91q-112 -31 -250 -31q-121 0 -229 16q-121 18 -201 38l-12 372h110l54 -224q46 -27 116 -46q74 -20 146 -20q112 0 179 22q70 23 107 66q39 45 52 107q14 65 14 145q0 94 -24 154t-67 94t-102 49 q-56 14 -131 19l-172 12v130l172 8q136 6 193 75t57 225q0 77 -14 131q-13 52 -46 86q-32 33 -85 47q-54 14 -133 14q-66 0 -123 -16q-60 -17 -103 -42l-40 -204h-110v344q106 25 169 37q90 17 207 17q129 0 230 -25q107 -26 179 -74q76 -50 116 -124q41 -76 41 -175 q0 -149 -98 -256q-96 -105 -280 -134q219 -24 335 -125q115 -100 115 -279z" />
<glyph unicode="&#xb4;" horiz-adv-x="1364" d="M312 2238v66l392 544h426v-74l-708 -536h-110z" />
<glyph unicode="&#xb5;" horiz-adv-x="2360" d="M1632 242l-101 -89q-51 -44 -125 -92q-68 -43 -147 -72q-81 -29 -167 -29q-131 0 -220 46q-92 48 -140 110q0 -258 -17 -524q-17 -259 -51 -464h-356v90q11 36 30 124q17 79 34 207q15 113 28 271q12 150 12 318v1602l-280 50v90h612v-1304q0 -90 30 -161q31 -72 84 -121 q56 -51 130 -76q78 -26 170 -26q63 0 126 16q68 17 125 41q64 27 116 56q56 32 97 61v1374l-284 50v90h614v-1740l274 -50v-90h-556z" />
<glyph unicode="&#xb6;" horiz-adv-x="1856" d="M1622 2532v-3048h-188v3048h-340v-3048h-188l4 1646q-186 0 -346 46q-163 47 -284 144q-123 98 -193 248q-71 151 -71 358q0 182 55 320q56 141 164 237q109 97 272 148t377 51h926v-106z" />
<glyph unicode="&#xb7;" horiz-adv-x="1024" d="M754 1356q0 -54 -19 -96q-20 -45 -51 -76t-77 -51q-44 -19 -95 -19q-54 0 -96 19q-45 20 -76 51t-51 76q-19 42 -19 96q0 52 19 94q20 44 51 77q30 31 76 52q42 19 96 19q51 0 95 -19q47 -20 77 -52q31 -33 51 -77q19 -42 19 -94z" />
<glyph unicode="&#x2219;" horiz-adv-x="1024" d="M754 1356q0 -54 -19 -96q-20 -45 -51 -76t-77 -51q-44 -19 -95 -19q-54 0 -96 19q-45 20 -76 51t-51 76q-19 42 -19 96q0 52 19 94q20 44 51 77q30 31 76 52q42 19 96 19q51 0 95 -19q47 -20 77 -52q31 -33 51 -77q19 -42 19 -94z" />
<glyph unicode="&#xb8;" horiz-adv-x="1364" d="M1056 -468q0 -92 -36 -166q-37 -75 -102 -127q-68 -54 -157 -82q-93 -29 -199 -29q-60 0 -139 11q-76 11 -137 33v148q17 -6 47 -12q21 -4 62 -10q22 -3 68 -7q35 -3 63 -3q120 0 174 59t54 149q0 64 -30 107q-29 43 -75 70q-43 26 -98 40q-46 12 -101 17l82 306h172 l-36 -164q182 -18 285 -106t103 -234z" />
<glyph unicode="&#xb9;" horiz-adv-x="1228" d="M750 1196l332 -28v-98h-950v98l330 28v1250l-322 -116v94l466 268h144v-1496z" />
<glyph unicode="&#xba;" horiz-adv-x="1270" d="M1196 2138q0 -290 -148 -444t-422 -154q-128 0 -230 39t-174 114q-73 76 -110 187q-38 114 -38 258q0 288 149 437t415 149q127 0 229 -37t176 -111q71 -71 113 -184q40 -108 40 -254zM938 2138q0 116 -15 205q-15 90 -51 148q-36 59 -96 89t-150 30q-88 0 -144 -30 q-55 -30 -90 -89q-33 -56 -47 -148q-13 -85 -13 -205q0 -121 13 -208q14 -92 47 -150q34 -59 90 -91q55 -31 144 -31q91 0 150 31q60 32 96 91q36 60 51 150t15 208z" />
<glyph unicode="&#xbb;" d="M1814 860l-668 -712h-162l454 778l-454 778h162l668 -712v-132zM996 860l-670 -712h-162l456 778l-456 778h162l670 -712v-132z" />
<glyph unicode="&#xbc;" horiz-adv-x="3072" d="M672 0h-204l1928 2682h200zM750 1196l332 -28v-98h-950v98l330 28v1250l-322 -116v94l466 268h144v-1496zM2586 320v-318h-274v318h-722v194l782 1100h214v-1088h202v-206h-202zM2312 1304h-4l-554 -778h558v778z" />
<glyph unicode="&#xbd;" horiz-adv-x="3072" d="M672 0h-204l1928 2682h200zM750 1196l332 -28v-98h-950v98l330 28v1250l-322 -116v94l466 268h144v-1496zM2916 2h-998v192l219 200q97 88 173 164t130 145q55 71 89 144q36 79 52 163q17 91 17 200q0 149 -67 217q-67 69 -197 69q-68 0 -128 -20q-54 -18 -100 -46 l-42 -196h-110v344q78 19 184 38q92 16 196 16q268 0 409 -111t141 -311q0 -150 -48 -262q-48 -111 -143 -219q-95 -107 -233 -227l-318 -284h774v-216z" />
<glyph unicode="&#xbe;" horiz-adv-x="3072" d="M672 0h-204l1928 2682h200zM1212 1508q0 -111 -46 -196q-47 -86 -129 -146q-81 -59 -197 -91q-112 -31 -250 -31q-121 0 -229 16q-121 18 -201 38l-12 372h110l54 -224q46 -27 116 -46q74 -20 146 -20q112 0 179 22q70 23 107 66q39 45 52 107q14 65 14 145q0 94 -24 154 t-67 94t-102 49q-56 14 -131 19l-172 12v130l172 8q136 6 193 75t57 225q0 77 -14 131q-13 52 -46 86q-32 33 -85 47q-54 14 -133 14q-66 0 -123 -16q-60 -17 -103 -42l-40 -204h-110v344q106 25 169 37q90 17 207 17q129 0 230 -25q107 -26 179 -74q76 -50 116 -124 q41 -76 41 -175q0 -149 -98 -256q-96 -105 -280 -134q219 -24 335 -125q115 -100 115 -279zM2528 320v-318h-274v318h-722v194l782 1100h214v-1088h202v-206h-202zM2254 1304h-4l-554 -778h558v778z" />
<glyph unicode="&#xbf;" horiz-adv-x="1818" d="M938 1164h160l52 -668l-286 -58q-69 -13 -132 -49q-61 -35 -104 -102q-44 -69 -68 -172q-24 -105 -24 -259q0 -148 25 -248q26 -102 82 -166q57 -65 148 -93q93 -29 225 -29q122 0 219 28q100 29 169 70l70 328h132v-508q-138 -40 -279 -63q-144 -23 -311 -23 q-425 0 -636 172q-212 173 -212 508q0 140 33 266q33 127 108 230q76 104 195 179q120 75 294 111l116 26zM758 1680q0 52 19 94q20 44 51 77q30 31 76 52q42 19 96 19q52 0 94 -19q45 -20 77 -52t52 -77q19 -42 19 -94q0 -54 -19 -96q-21 -46 -52 -76q-33 -31 -77 -51 q-42 -19 -94 -19q-54 0 -96 19q-45 20 -76 51t-51 76q-19 42 -19 96z" />
<glyph unicode="&#xc0;" horiz-adv-x="2958" d="M922 106v-106h-882v106l304 54l914 2544h380l950 -2544l340 -54v-106h-1134v106l360 54l-266 774h-1056l-270 -774zM1352 2416l-460 -1302h934zM1594 2906l-708 536v74h426l392 -544v-66h-110z" />
<glyph unicode="&#xc1;" horiz-adv-x="2958" d="M922 106v-106h-882v106l304 54l914 2544h380l950 -2544l340 -54v-106h-1134v106l360 54l-266 774h-1056l-270 -774zM1352 2416l-460 -1302h934zM1222 2906v66l392 544h426v-74l-708 -536h-110z" />
<glyph unicode="&#xc2;" horiz-adv-x="2958" d="M922 106v-106h-882v106l304 54l914 2544h380l950 -2544l340 -54v-106h-1134v106l360 54l-266 774h-1056l-270 -774zM1352 2416l-460 -1302h934zM790 2906v66l436 546h426l434 -546v-66h-112l-536 366l-536 -366h-112z" />
<glyph unicode="&#xc3;" horiz-adv-x="2958" d="M922 106v-106h-882v106l304 54l914 2544h380l950 -2544l340 -54v-106h-1134v106l360 54l-266 774h-1056l-270 -774zM1352 2416l-460 -1302h934zM1692 2904q-97 0 -177 43q-81 43 -153 96q-76 55 -139 96q-67 43 -133 43q-62 0 -98 -21t-57 -56q-21 -34 -30 -77 q-9 -42 -15 -84h-104q6 94 27 181q21 88 66 155q45 68 117 108q71 40 180 40q97 0 177 -43q79 -42 154 -96q83 -59 140 -96q67 -43 131 -43q60 0 96 21t57 55q20 33 31 76q9 37 16 84h104q-6 -94 -27 -180q-21 -87 -66 -154q-45 -68 -117 -108q-71 -40 -180 -40z" />
<glyph unicode="&#xc4;" horiz-adv-x="2958" d="M922 106v-106h-882v106l304 54l914 2544h380l950 -2544l340 -54v-106h-1134v106l360 54l-266 774h-1056l-270 -774zM1352 2416l-460 -1302h934zM2006 3118q0 -84 -56 -143t-140 -59q-43 0 -78 16q-38 17 -63 44q-26 28 -43 64q-16 35 -16 78q0 84 58 142t142 58 q85 0 140 -58q56 -59 56 -142zM1294 3118q0 -84 -56 -143t-140 -59q-43 0 -78 16q-37 17 -64 44t-44 64q-16 35 -16 78t16 78q17 38 44 63q28 26 64 43q35 16 78 16q85 0 140 -58q56 -59 56 -142z" />
<glyph unicode="&#xc5;" horiz-adv-x="2958" d="M922 106v-106h-882v106l304 54l914 2544h380l950 -2544l340 -54v-106h-1134v106l360 54l-266 774h-1056l-270 -774zM1352 2416l-460 -1302h934zM1850 2952q0 -83 -32 -158q-32 -74 -87 -129t-129 -87q-75 -32 -158 -32t-158 32q-74 32 -129 87t-87 129q-32 75 -32 158 t32 158q32 74 87 129t129 87q75 32 158 32t158 -32q74 -32 129 -87t87 -129q32 -75 32 -158zM1690 2952q0 51 -19 95q-20 46 -53 79t-79 53q-44 19 -95 19q-54 0 -96 -19q-45 -20 -78 -53t-53 -79q-19 -44 -19 -95t19 -95q20 -47 53 -78q35 -34 78 -53q45 -20 96 -20 q49 0 95 20q43 19 79 53q33 31 53 78q19 44 19 95z" />
<glyph unicode="&#xc6;" horiz-adv-x="3642" d="M1462 106l304 54v774h-824l-414 -774l316 -54v-106h-804v106l272 54l1294 2380l-328 36v106h1990v-642h-130l-66 434q-76 9 -155 14q-92 6 -185 9q-59 2 -178 4q-56 1 -130 1h-274v-1048h562l60 320h128v-824h-128l-60 324h-562v-1094h364q124 0 234 3q131 4 198 7 q99 5 151 10q63 6 93 12l116 496h130l-36 -708h-1938v106zM1766 1114v1348l-726 -1348h726z" />
<glyph unicode="&#xc7;" horiz-adv-x="2732" d="M1548 -40q-327 0 -585 92q-256 91 -434 266q-177 174 -269 425q-92 252 -92 567q0 360 93 624q93 265 270 437q178 173 435 257q258 84 590 84q138 0 260 -9q112 -8 233 -23q101 -12 211 -32q75 -13 194 -38l12 -586h-132l-60 348q-142 87 -325 133q-186 47 -377 47 q-235 0 -417 -64q-184 -65 -309 -209q-125 -145 -193 -382q-67 -235 -67 -583q0 -304 66 -529q66 -227 190 -374q126 -150 303 -223q180 -74 407 -74q128 0 237 16q119 18 210 44q103 30 174 65q80 39 129 77l74 400h130l-12 -630q-90 -26 -192 -47q-115 -24 -230 -41 q-113 -17 -256 -28q-127 -10 -268 -10zM1914 -468q0 -92 -36 -166q-37 -75 -102 -127q-68 -54 -157 -82q-93 -29 -199 -29q-60 0 -139 11q-76 11 -137 33v148q17 -6 47 -12q21 -4 62 -10q22 -3 68 -7q35 -3 63 -3q120 0 174 59t54 149q0 64 -30 107q-29 43 -75 70 q-43 26 -98 40q-46 12 -101 17l82 306h172l-36 -164q182 -18 285 -106t103 -234z" />
<glyph unicode="&#xc8;" horiz-adv-x="2502" d="M118 106l344 54v2364l-344 52v106h2012v-642h-132l-64 434q-76 9 -155 14q-92 6 -185 9q-59 2 -178 4q-56 1 -130 1h-438v-1048h724l62 320h128v-824h-128l-62 324h-724v-1094h528q124 0 234 3q131 4 198 7q99 5 151 10q63 6 93 12l114 496h132l-38 -708h-2142v106z M1516 2906l-708 536v74h426l392 -544v-66h-110z" />
<glyph unicode="&#xc9;" horiz-adv-x="2502" d="M118 106l344 54v2364l-344 52v106h2012v-642h-132l-64 434q-76 9 -155 14q-92 6 -185 9q-59 2 -178 4q-56 1 -130 1h-438v-1048h724l62 320h128v-824h-128l-62 324h-724v-1094h528q124 0 234 3q131 4 198 7q99 5 151 10q63 6 93 12l114 496h132l-38 -708h-2142v106z M940 2906v66l392 544h426v-74l-708 -536h-110z" />
<glyph unicode="&#xca;" horiz-adv-x="2502" d="M118 106l344 54v2364l-344 52v106h2012v-642h-132l-64 434q-76 9 -155 14q-92 6 -185 9q-59 2 -178 4q-56 1 -130 1h-438v-1048h724l62 320h128v-824h-128l-62 324h-724v-1094h528q124 0 234 3q131 4 198 7q99 5 151 10q63 6 93 12l114 496h132l-38 -708h-2142v106z M606 2906v66l436 546h426l434 -546v-66h-112l-536 366l-536 -366h-112z" />
<glyph unicode="&#xcb;" horiz-adv-x="2502" d="M118 106l344 54v2364l-344 52v106h2012v-642h-132l-64 434q-76 9 -155 14q-92 6 -185 9q-59 2 -178 4q-56 1 -130 1h-438v-1048h724l62 320h128v-824h-128l-62 324h-724v-1094h528q124 0 234 3q131 4 198 7q99 5 151 10q63 6 93 12l114 496h132l-38 -708h-2142v106z M1826 3118q0 -84 -56 -143t-140 -59q-43 0 -78 16q-38 17 -63 44q-26 28 -43 64q-16 35 -16 78q0 84 58 142t142 58q85 0 140 -58q56 -59 56 -142zM1114 3118q0 -84 -56 -143t-140 -59q-43 0 -78 16q-37 17 -64 44t-44 64q-16 35 -16 78t16 78q17 38 44 63q28 26 64 43 q35 16 78 16q85 0 140 -58q56 -59 56 -142z" />
<glyph unicode="&#xcc;" horiz-adv-x="1364" d="M876 160l344 -54v-106h-1072v106l344 54v2364l-344 52v106h1072v-106l-344 -52v-2364zM816 2906l-708 536v74h426l392 -544v-66h-110z" />
<glyph unicode="&#xcd;" horiz-adv-x="1364" d="M876 160l344 -54v-106h-1072v106l344 54v2364l-344 52v106h1072v-106l-344 -52v-2364zM418 2906v66l392 544h426v-74l-708 -536h-110z" />
<glyph unicode="&#xce;" horiz-adv-x="1364" d="M876 160l344 -54v-106h-1072v106l344 54v2364l-344 52v106h1072v-106l-344 -52v-2364zM36 2906v66l436 546h426l434 -546v-66h-112l-536 366l-536 -366h-112z" />
<glyph unicode="&#xcf;" horiz-adv-x="1364" d="M876 160l344 -54v-106h-1072v106l344 54v2364l-344 52v106h1072v-106l-344 -52v-2364zM1236 3118q0 -84 -56 -143t-140 -59q-43 0 -78 16q-38 17 -63 44q-26 28 -43 64q-16 35 -16 78q0 84 58 142t142 58q85 0 140 -58q56 -59 56 -142zM524 3118q0 -84 -56 -143t-140 -59 q-43 0 -78 16q-37 17 -64 44t-44 64q-16 35 -16 78t16 78q17 38 44 63q28 26 64 43q35 16 78 16q85 0 140 -58q56 -59 56 -142z" />
<glyph unicode="&#xd0;" horiz-adv-x="2958" d="M1262 2682q324 0 604 -69t486 -225t324 -409q118 -252 118 -623q0 -330 -76 -582q-77 -255 -238 -428q-162 -174 -413 -264t-601 -90q-161 0 -256 1l-282 3q-140 2 -264 3q-83 1 -202 1h-344v106l344 54v1098h-356v164h356v1102l-344 52v106h1144zM1602 1422v-164h-754 v-1070q60 -5 130 -6q45 -1 144 -5q49 -2 149 -4q50 -1 147 -1q254 0 435 72q182 72 297 217q116 146 171 364q55 217 55 515q0 314 -84 535q-85 222 -240 361q-157 140 -379 203q-223 63 -501 63h-324v-1080h754z" />
<glyph unicode="&#xd1;" horiz-adv-x="2958" d="M2310 2524l-360 52v106h914v-106l-344 -52v-2524h-194l-1654 2412v-2252l360 -54v-106h-914v106l344 54v2364l-344 52v106h812l1380 -1986v1828zM1758 2904q-97 0 -177 43q-81 43 -153 96q-76 55 -139 96q-67 43 -133 43q-62 0 -98 -21t-57 -56q-21 -34 -30 -77 q-9 -42 -15 -84h-104q6 94 27 181q21 88 66 155q45 68 117 108q71 40 180 40q97 0 177 -43q79 -42 154 -96q83 -59 140 -96q67 -43 131 -43q60 0 96 21t57 55q20 33 31 76q9 37 16 84h104q-6 -94 -27 -180q-21 -87 -66 -154q-45 -68 -117 -108q-71 -40 -180 -40z" />
<glyph unicode="&#xd2;" horiz-adv-x="2958" d="M586 1344q0 -280 42 -506q42 -225 144 -386q102 -160 274 -247t432 -87t432 87q171 86 275 247q103 160 145 386t42 506q0 278 -42 502q-42 225 -145 381q-103 157 -275 241t-432 84t-432 -84t-274 -241t-144 -381t-42 -502zM168 1344q0 356 87 614q87 259 253 426 q168 169 410 248q246 80 560 80q304 0 549 -80q243 -79 413 -248t260 -426q90 -258 90 -614t-90 -617t-260 -431q-171 -171 -413 -253q-244 -83 -549 -83t-548 83q-242 83 -412 253t-260 431t-90 617zM1680 2906l-708 536v74h426l392 -544v-66h-110z" />
<glyph unicode="&#xd3;" horiz-adv-x="2958" d="M586 1344q0 -280 42 -506q42 -225 144 -386q102 -160 274 -247t432 -87t432 87q171 86 275 247q103 160 145 386t42 506q0 278 -42 502q-42 225 -145 381q-103 157 -275 241t-432 84t-432 -84t-274 -241t-144 -381t-42 -502zM168 1344q0 356 87 614q87 259 253 426 q168 169 410 248q246 80 560 80q304 0 549 -80q243 -79 413 -248t260 -426q90 -258 90 -614t-90 -617t-260 -431q-171 -171 -413 -253q-244 -83 -549 -83t-548 83q-242 83 -412 253t-260 431t-90 617zM1254 2906v66l392 544h426v-74l-708 -536h-110z" />
<glyph unicode="&#xd4;" horiz-adv-x="2958" d="M586 1344q0 -280 42 -506q42 -225 144 -386q102 -160 274 -247t432 -87t432 87q171 86 275 247q103 160 145 386t42 506q0 278 -42 502q-42 225 -145 381q-103 157 -275 241t-432 84t-432 -84t-274 -241t-144 -381t-42 -502zM168 1344q0 356 87 614q87 259 253 426 q168 169 410 248q246 80 560 80q304 0 549 -80q243 -79 413 -248t260 -426q90 -258 90 -614t-90 -617t-260 -431q-171 -171 -413 -253q-244 -83 -549 -83t-548 83q-242 83 -412 253t-260 431t-90 617zM834 2906v66l436 546h426l434 -546v-66h-112l-536 366l-536 -366h-112z " />
<glyph unicode="&#xd5;" horiz-adv-x="2958" d="M586 1344q0 -280 42 -506q42 -225 144 -386q102 -160 274 -247t432 -87t432 87q171 86 275 247q103 160 145 386t42 506q0 278 -42 502q-42 225 -145 381q-103 157 -275 241t-432 84t-432 -84t-274 -241t-144 -381t-42 -502zM168 1344q0 356 87 614q87 259 253 426 q168 169 410 248q246 80 560 80q304 0 549 -80q243 -79 413 -248t260 -426q90 -258 90 -614t-90 -617t-260 -431q-171 -171 -413 -253q-244 -83 -549 -83t-548 83q-242 83 -412 253t-260 431t-90 617zM1734 2904q-97 0 -177 43q-81 43 -153 96q-76 55 -139 96 q-67 43 -133 43q-62 0 -98 -21t-57 -56q-21 -34 -30 -77q-9 -42 -15 -84h-104q6 94 27 181q21 88 66 155q45 68 117 108q71 40 180 40q97 0 177 -43q79 -42 154 -96q83 -59 140 -96q67 -43 131 -43q60 0 96 21t57 55q20 33 31 76q9 37 16 84h104q-6 -94 -27 -180 q-21 -87 -66 -154q-45 -68 -117 -108q-71 -40 -180 -40z" />
<glyph unicode="&#xd6;" horiz-adv-x="2958" d="M586 1344q0 -280 42 -506q42 -225 144 -386q102 -160 274 -247t432 -87t432 87q171 86 275 247q103 160 145 386t42 506q0 278 -42 502q-42 225 -145 381q-103 157 -275 241t-432 84t-432 -84t-274 -241t-144 -381t-42 -502zM168 1344q0 356 87 614q87 259 253 426 q168 169 410 248q246 80 560 80q304 0 549 -80q243 -79 413 -248t260 -426q90 -258 90 -614t-90 -617t-260 -431q-171 -171 -413 -253q-244 -83 -549 -83t-548 83q-242 83 -412 253t-260 431t-90 617zM2026 3118q0 -84 -56 -143t-140 -59q-43 0 -78 16q-38 17 -63 44 q-26 28 -43 64q-16 35 -16 78q0 84 58 142t142 58q85 0 140 -58q56 -59 56 -142zM1314 3118q0 -84 -56 -143t-140 -59q-43 0 -78 16q-37 17 -64 44t-44 64q-16 35 -16 78t16 78q17 38 44 63q28 26 64 43q35 16 78 16q85 0 140 -58q56 -59 56 -142z" />
<glyph unicode="&#xd7;" horiz-adv-x="2310" d="M1156 1216l-690 -688l-142 144l688 692l-688 684l148 148l684 -688l692 688l142 -144l-688 -688l688 -692l-142 -144z" />
<glyph unicode="&#xd8;" horiz-adv-x="2958" d="M168 1344q0 356 87 614q87 259 253 426q168 169 410 248q246 80 560 80q252 0 465 -56q209 -55 371 -170l246 296h230l-340 -410q163 -170 251 -423q89 -255 89 -605q0 -356 -90 -617t-260 -431q-171 -171 -413 -253q-244 -83 -549 -83q-253 0 -460 53q-204 52 -366 167 l-242 -290h-238l340 410q-167 172 -256 430q-88 257 -88 614zM586 1344q0 -242 30 -441q30 -200 100 -355l1430 1730q-104 133 -267 203q-165 71 -401 71q-260 0 -432 -84t-274 -241t-144 -381t-42 -502zM2372 1344q0 234 -30 428q-30 193 -98 346l-1424 -1732 q104 -133 264 -200q162 -68 394 -68q260 0 432 87q171 86 275 247q103 160 145 386t42 506z" />
<glyph unicode="&#xd9;" horiz-adv-x="2958" d="M2318 2524l-360 52v106h914v-106l-344 -52v-1602q0 -186 -46 -357q-47 -174 -162 -307t-317 -216q-200 -82 -509 -82q-534 0 -799 241t-265 683v1640l-344 52v106h1072v-106l-344 -52v-1610q0 -164 39 -299q39 -136 124 -231q85 -96 220 -148q134 -52 327 -52 q211 0 360 52q151 53 247 146q97 94 142 228t45 296v1618zM1688 2906l-708 536v74h426l392 -544v-66h-110z" />
<glyph unicode="&#xda;" horiz-adv-x="2958" d="M2318 2524l-360 52v106h914v-106l-344 -52v-1602q0 -186 -46 -357q-47 -174 -162 -307t-317 -216q-200 -82 -509 -82q-534 0 -799 241t-265 683v1640l-344 52v106h1072v-106l-344 -52v-1610q0 -164 39 -299q39 -136 124 -231q85 -96 220 -148q134 -52 327 -52 q211 0 360 52q151 53 247 146q97 94 142 228t45 296v1618zM1304 2906v66l392 544h426v-74l-708 -536h-110z" />
<glyph unicode="&#xdb;" horiz-adv-x="2958" d="M2318 2524l-360 52v106h914v-106l-344 -52v-1602q0 -186 -46 -357q-47 -174 -162 -307t-317 -216q-200 -82 -509 -82q-534 0 -799 241t-265 683v1640l-344 52v106h1072v-106l-344 -52v-1610q0 -164 39 -299q39 -136 124 -231q85 -96 220 -148q134 -52 327 -52 q211 0 360 52q151 53 247 146q97 94 142 228t45 296v1618zM888 2906v66l436 546h426l434 -546v-66h-112l-536 366l-536 -366h-112z" />
<glyph unicode="&#xdc;" horiz-adv-x="2958" d="M2318 2524l-360 52v106h914v-106l-344 -52v-1602q0 -186 -46 -357q-47 -174 -162 -307t-317 -216q-200 -82 -509 -82q-534 0 -799 241t-265 683v1640l-344 52v106h1072v-106l-344 -52v-1610q0 -164 39 -299q39 -136 124 -231q85 -96 220 -148q134 -52 327 -52 q211 0 360 52q151 53 247 146q97 94 142 228t45 296v1618zM2034 3118q0 -84 -56 -143t-140 -59q-43 0 -78 16q-38 17 -63 44q-26 28 -43 64q-16 35 -16 78q0 84 58 142t142 58q85 0 140 -58q56 -59 56 -142zM1322 3118q0 -84 -56 -143t-140 -59q-43 0 -78 16q-37 17 -64 44 t-44 64q-16 35 -16 78t16 78q17 38 44 63q28 26 64 43q35 16 78 16q85 0 140 -58q56 -59 56 -142z" />
<glyph unicode="&#xdd;" horiz-adv-x="2958" d="M1676 1056v-896l426 -54v-106h-1238v106l426 54v884l-942 1480l-302 52v106h1134v-106l-360 -52l770 -1238l732 1238l-340 52v106h872v-106l-294 -52zM1282 2906v66l392 544h426v-74l-708 -536h-110z" />
<glyph unicode="&#xde;" horiz-adv-x="2278" d="M1716 1372q0 158 -35 280q-35 121 -114 200q-79 80 -207 120q-126 40 -316 40h-196v-1320h208q189 0 315 49q127 49 204 138q78 90 109 214q32 126 32 279zM1130 2166q284 0 471 -61q189 -61 303 -168q114 -106 162 -251q48 -144 48 -310q0 -163 -47 -316 q-47 -152 -158 -268t-297 -186q-185 -70 -462 -70h-302v-376l344 -54v-106h-1048v106l318 54v2364l-318 52v106h1048v-106l-344 -52v-358h282z" />
<glyph unicode="&#xdf;" d="M1754 1994q-131 -15 -185 -23q-96 -14 -171 -49t-125 -102q-49 -65 -49 -182q0 -127 50 -213q50 -85 126 -153q86 -75 164 -130q86 -60 164 -144q76 -82 126 -198q50 -117 50 -288q0 -127 -34 -228q-35 -103 -107 -174q-74 -72 -187 -111q-114 -39 -274 -39q-68 0 -131 7 q-73 8 -130 19q-60 11 -116 29q-54 17 -89 39v384h90l66 -188q49 -58 125 -94q81 -38 181 -38q142 0 221 81q79 80 79 251q0 139 -50 231q-48 89 -124 160q-74 69 -162 129t-162 138q-75 80 -124 186q-50 109 -50 274q0 124 39 215t106 154q69 65 158 101q94 39 197 56 q0 177 -23 300q-22 118 -70 194q-47 74 -120 105q-72 31 -173 31q-85 0 -157 -26q-71 -26 -122 -86q-52 -61 -80 -156q-29 -98 -29 -236v-2220h-612v90l280 50v1982q0 212 54 357t150 235q95 89 228 130q130 40 288 40q175 0 307 -46q133 -46 224 -151q90 -103 137 -275 q46 -168 46 -418z" />
<glyph unicode="&#xe0;" horiz-adv-x="1818" d="M930 1922q128 0 238 -24q112 -25 190 -82q81 -59 125 -157q45 -99 45 -249v-1270l234 -50v-90h-516l-38 188q-28 -28 -81 -70q-51 -40 -123 -75q-74 -35 -167 -59q-95 -24 -211 -24q-136 0 -229 42q-94 42 -149 117q-56 76 -80 178q-24 103 -24 223q0 124 30 215t84 153 q55 63 127 101q73 39 158 61t180 30q110 9 191 10l282 8v294q0 81 -14 153q-13 69 -47 119q-33 49 -89 78q-55 28 -140 28q-95 0 -194 -26q-98 -26 -172 -68l-68 -234h-112v410q125 27 269 49q139 21 301 21zM1196 958l-262 -8q-124 -5 -204 -23q-89 -20 -142 -65 q-56 -46 -84 -126q-28 -78 -28 -204q0 -352 286 -352q138 0 235 31q101 32 199 79v668zM1088 2238l-708 536v74h426l392 -544v-66h-110z" />
<glyph unicode="&#xe1;" horiz-adv-x="1818" d="M930 1922q128 0 238 -24q112 -25 190 -82q81 -59 125 -157q45 -99 45 -249v-1270l234 -50v-90h-516l-38 188q-28 -28 -81 -70q-51 -40 -123 -75q-74 -35 -167 -59q-95 -24 -211 -24q-136 0 -229 42q-94 42 -149 117q-56 76 -80 178q-24 103 -24 223q0 124 30 215t84 153 q55 63 127 101q73 39 158 61t180 30q110 9 191 10l282 8v294q0 81 -14 153q-13 69 -47 119q-33 49 -89 78q-55 28 -140 28q-95 0 -194 -26q-98 -26 -172 -68l-68 -234h-112v410q125 27 269 49q139 21 301 21zM1196 958l-262 -8q-124 -5 -204 -23q-89 -20 -142 -65 q-56 -46 -84 -126q-28 -78 -28 -204q0 -352 286 -352q138 0 235 31q101 32 199 79v668zM684 2238v66l392 544h426v-74l-708 -536h-110z" />
<glyph unicode="&#xe2;" horiz-adv-x="1818" d="M930 1922q128 0 238 -24q112 -25 190 -82q81 -59 125 -157q45 -99 45 -249v-1270l234 -50v-90h-516l-38 188q-28 -28 -81 -70q-51 -40 -123 -75q-74 -35 -167 -59q-95 -24 -211 -24q-136 0 -229 42q-94 42 -149 117q-56 76 -80 178q-24 103 -24 223q0 124 30 215t84 153 q55 63 127 101q73 39 158 61t180 30q110 9 191 10l282 8v294q0 81 -14 153q-13 69 -47 119q-33 49 -89 78q-55 28 -140 28q-95 0 -194 -26q-98 -26 -172 -68l-68 -234h-112v410q125 27 269 49q139 21 301 21zM1196 958l-262 -8q-124 -5 -204 -23q-89 -20 -142 -65 q-56 -46 -84 -126q-28 -78 -28 -204q0 -352 286 -352q138 0 235 31q101 32 199 79v668zM286 2238v66l436 546h426l434 -546v-66h-112l-536 366l-536 -366h-112z" />
<glyph unicode="&#xe3;" horiz-adv-x="1818" d="M930 1922q128 0 238 -24q112 -25 190 -82q81 -59 125 -157q45 -99 45 -249v-1270l234 -50v-90h-516l-38 188q-28 -28 -81 -70q-51 -40 -123 -75q-74 -35 -167 -59q-95 -24 -211 -24q-136 0 -229 42q-94 42 -149 117q-56 76 -80 178q-24 103 -24 223q0 124 30 215t84 153 q55 63 127 101q73 39 158 61t180 30q110 9 191 10l282 8v294q0 81 -14 153q-13 69 -47 119q-33 49 -89 78q-55 28 -140 28q-95 0 -194 -26q-98 -26 -172 -68l-68 -234h-112v410q125 27 269 49q139 21 301 21zM1196 958l-262 -8q-124 -5 -204 -23q-89 -20 -142 -65 q-56 -46 -84 -126q-28 -78 -28 -204q0 -352 286 -352q138 0 235 31q101 32 199 79v668zM1172 2236q-97 0 -177 43q-81 43 -153 96q-76 55 -139 96q-67 43 -133 43q-62 0 -98 -21t-57 -56q-21 -34 -30 -77q-9 -42 -15 -84h-104q6 94 27 181q21 88 66 155q45 68 117 108 q71 40 180 40q97 0 177 -43q79 -42 154 -96q83 -59 140 -96q67 -43 131 -43q60 0 96 21t57 55q20 33 31 76q9 37 16 84h104q-6 -94 -27 -180q-21 -87 -66 -154q-45 -68 -117 -108q-71 -40 -180 -40z" />
<glyph unicode="&#xe4;" horiz-adv-x="1818" d="M930 1922q128 0 238 -24q112 -25 190 -82q81 -59 125 -157q45 -99 45 -249v-1270l234 -50v-90h-516l-38 188q-28 -28 -81 -70q-51 -40 -123 -75q-74 -35 -167 -59q-95 -24 -211 -24q-136 0 -229 42q-94 42 -149 117q-56 76 -80 178q-24 103 -24 223q0 124 30 215t84 153 q55 63 127 101q73 39 158 61t180 30q110 9 191 10l282 8v294q0 81 -14 153q-13 69 -47 119q-33 49 -89 78q-55 28 -140 28q-95 0 -194 -26q-98 -26 -172 -68l-68 -234h-112v410q125 27 269 49q139 21 301 21zM1196 958l-262 -8q-124 -5 -204 -23q-89 -20 -142 -65 q-56 -46 -84 -126q-28 -78 -28 -204q0 -352 286 -352q138 0 235 31q101 32 199 79v668zM1466 2388q0 -84 -56 -143t-140 -59q-43 0 -78 16q-38 17 -63 44q-26 28 -43 64q-16 35 -16 78q0 84 58 142t142 58q85 0 140 -58q56 -59 56 -142zM754 2388q0 -84 -56 -143t-140 -59 q-43 0 -78 16q-37 17 -64 44t-44 64q-16 35 -16 78t16 78q17 38 44 63q28 26 64 43q35 16 78 16q85 0 140 -58q56 -59 56 -142z" />
<glyph unicode="&#xe5;" horiz-adv-x="1818" d="M930 1922q128 0 238 -24q112 -25 190 -82q81 -59 125 -157q45 -99 45 -249v-1270l234 -50v-90h-516l-38 188q-28 -28 -81 -70q-51 -40 -123 -75q-74 -35 -167 -59q-95 -24 -211 -24q-136 0 -229 42q-94 42 -149 117q-56 76 -80 178q-24 103 -24 223q0 124 30 215t84 153 q55 63 127 101q73 39 158 61t180 30q110 9 191 10l282 8v294q0 81 -14 153q-13 69 -47 119q-33 49 -89 78q-55 28 -140 28q-95 0 -194 -26q-98 -26 -172 -68l-68 -234h-112v410q125 27 269 49q139 21 301 21zM1196 958l-262 -8q-124 -5 -204 -23q-89 -20 -142 -65 q-56 -46 -84 -126q-28 -78 -28 -204q0 -352 286 -352q138 0 235 31q101 32 199 79v668zM1348 2560q0 -83 -32 -158q-32 -74 -87 -129t-129 -87q-75 -32 -158 -32t-158 32q-74 32 -129 87t-87 129q-32 75 -32 158t32 158q32 74 87 129t129 87q75 32 158 32t158 -32 q74 -32 129 -87t87 -129q32 -75 32 -158zM1188 2560q0 51 -19 95q-20 46 -53 79t-79 53q-44 19 -95 19q-54 0 -96 -19q-45 -20 -78 -53t-53 -79q-19 -44 -19 -95t19 -95q20 -47 53 -78q35 -34 78 -53q45 -20 96 -20q49 0 95 20q43 19 79 53q33 31 53 78q19 44 19 95z" />
<glyph unicode="&#xe6;" horiz-adv-x="2732" d="M1528 946v-180q1 -124 18 -232q17 -109 68 -190q52 -82 150 -129q99 -47 260 -47q53 0 126 5q44 3 132 13q67 8 128 18q70 12 114 22v-112q-46 -30 -108 -57q-55 -24 -136 -49q-67 -20 -159 -35q-82 -13 -175 -13q-230 0 -392 66t-252 192q-52 -46 -123 -94 q-65 -44 -153 -83q-80 -36 -184 -59q-98 -22 -216 -22q-136 0 -229 42q-94 42 -149 117q-56 76 -80 178q-24 103 -24 223q0 124 30 215t84 153q55 63 127 101q73 39 158 61t180 30q110 9 191 10l282 8v294q0 81 -14 153q-13 69 -47 119q-33 49 -89 78q-55 28 -140 28 q-95 0 -194 -26q-98 -26 -172 -68l-68 -234h-112v410q125 27 269 49q139 21 301 21q149 0 272 -32q122 -32 202 -116q91 81 212 118q123 38 276 38q146 0 272 -40q130 -41 224 -134q97 -95 152 -252q56 -159 56 -394v-164h-1068zM762 180q138 0 259 40q122 40 229 96 q-12 23 -21 58q-10 41 -17 80q-7 42 -12 91q-4 41 -4 93v320l-262 -8q-124 -5 -204 -23q-89 -20 -142 -65q-56 -46 -84 -126q-28 -78 -28 -204q0 -352 286 -352zM1892 1770q-112 0 -183 -47q-70 -46 -111 -133q-40 -84 -55 -209q-15 -123 -15 -275h720q0 152 -18 275 q-18 122 -59 209q-41 86 -109 133t-170 47z" />
<glyph unicode="&#xe7;" horiz-adv-x="1818" d="M1692 114q-56 -40 -124 -67q-73 -29 -154 -48q-74 -17 -171 -29q-84 -10 -173 -10q-246 0 -417 67q-174 68 -283 195t-162 313q-52 183 -52 419q0 258 67 441q68 187 187 304q122 120 285 175q166 56 361 56q166 0 314 -19q159 -21 276 -43v-524h-110l-86 332 q-75 43 -179 68q-107 26 -219 26q-129 0 -229 -47q-99 -47 -168 -147q-70 -102 -104 -254q-35 -157 -35 -368q0 -180 30 -325q30 -146 106 -247q77 -103 205 -158q130 -56 327 -56q61 0 139 5q63 4 138 14q67 9 126 21q53 11 105 26v-120zM1412 -468q0 -92 -36 -166 q-37 -75 -102 -127q-68 -54 -157 -82q-93 -29 -199 -29q-60 0 -139 11q-76 11 -137 33v148q17 -6 47 -12q21 -4 62 -10q22 -3 68 -7q35 -3 63 -3q120 0 174 59t54 149q0 64 -30 107q-29 43 -75 70q-43 26 -98 40q-46 12 -101 17l82 306h172l-36 -164q182 -18 285 -106 t103 -234z" />
<glyph unicode="&#xe8;" horiz-adv-x="1818" d="M520 946v-36q0 -146 21 -280t84 -237q62 -102 177 -164q113 -61 300 -61q53 0 126 5q44 3 132 13q67 8 128 18q70 12 114 22v-112q-46 -30 -111 -57q-60 -25 -143 -49q-71 -21 -166 -35q-85 -13 -178 -13q-236 0 -395 64q-161 65 -261 190q-100 126 -144 312 q-44 188 -44 428q0 492 206 734t588 242q152 0 281 -40q133 -41 229 -134q98 -95 155 -252q57 -158 57 -394v-164h-1156zM954 1770q-111 0 -193 -47q-81 -46 -134 -133q-52 -85 -78 -209q-25 -121 -25 -275h804q0 148 -17 275q-17 124 -60 209q-45 87 -115 133 q-73 47 -182 47zM1188 2238l-708 536v74h426l392 -544v-66h-110z" />
<glyph unicode="&#xe9;" horiz-adv-x="1818" d="M520 946v-36q0 -146 21 -280t84 -237q62 -102 177 -164q113 -61 300 -61q53 0 126 5q44 3 132 13q67 8 128 18q70 12 114 22v-112q-46 -30 -111 -57q-60 -25 -143 -49q-71 -21 -166 -35q-85 -13 -178 -13q-236 0 -395 64q-161 65 -261 190q-100 126 -144 312 q-44 188 -44 428q0 492 206 734t588 242q152 0 281 -40q133 -41 229 -134q98 -95 155 -252q57 -158 57 -394v-164h-1156zM954 1770q-111 0 -193 -47q-81 -46 -134 -133q-52 -85 -78 -209q-25 -121 -25 -275h804q0 148 -17 275q-17 124 -60 209q-45 87 -115 133 q-73 47 -182 47zM764 2238v66l392 544h426v-74l-708 -536h-110z" />
<glyph unicode="&#xea;" horiz-adv-x="1818" d="M520 946v-36q0 -146 21 -280t84 -237q62 -102 177 -164q113 -61 300 -61q53 0 126 5q44 3 132 13q67 8 128 18q70 12 114 22v-112q-46 -30 -111 -57q-60 -25 -143 -49q-71 -21 -166 -35q-85 -13 -178 -13q-236 0 -395 64q-161 65 -261 190q-100 126 -144 312 q-44 188 -44 428q0 492 206 734t588 242q152 0 281 -40q133 -41 229 -134q98 -95 155 -252q57 -158 57 -394v-164h-1156zM954 1770q-111 0 -193 -47q-81 -46 -134 -133q-52 -85 -78 -209q-25 -121 -25 -275h804q0 148 -17 275q-17 124 -60 209q-45 87 -115 133 q-73 47 -182 47zM302 2238v66l436 546h426l434 -546v-66h-112l-536 366l-536 -366h-112z" />
<glyph unicode="&#xeb;" horiz-adv-x="1818" d="M520 946v-36q0 -146 21 -280t84 -237q62 -102 177 -164q113 -61 300 -61q53 0 126 5q44 3 132 13q67 8 128 18q70 12 114 22v-112q-46 -30 -111 -57q-60 -25 -143 -49q-71 -21 -166 -35q-85 -13 -178 -13q-236 0 -395 64q-161 65 -261 190q-100 126 -144 312 q-44 188 -44 428q0 492 206 734t588 242q152 0 281 -40q133 -41 229 -134q98 -95 155 -252q57 -158 57 -394v-164h-1156zM954 1770q-111 0 -193 -47q-81 -46 -134 -133q-52 -85 -78 -209q-25 -121 -25 -275h804q0 148 -17 275q-17 124 -60 209q-45 87 -115 133 q-73 47 -182 47zM1486 2388q0 -84 -56 -143t-140 -59q-43 0 -78 16q-38 17 -63 44q-26 28 -43 64q-16 35 -16 78q0 84 58 142t142 58q85 0 140 -58q56 -59 56 -142zM774 2388q0 -84 -56 -143t-140 -59q-43 0 -78 16q-37 17 -64 44t-44 64q-16 35 -16 78t16 78q17 38 44 63 q28 26 64 43q35 16 78 16q85 0 140 -58q56 -59 56 -142z" />
<glyph unicode="&#xec;" horiz-adv-x="1138" d="M738 140l322 -50v-90h-974v90l320 50v1600l-266 50v90h598v-1740zM752 2238l-708 536v74h426l392 -544v-66h-110z" />
<glyph unicode="&#xed;" horiz-adv-x="1138" d="M738 140l322 -50v-90h-974v90l320 50v1600l-266 50v90h598v-1740zM276 2238v66l392 544h426v-74l-708 -536h-110z" />
<glyph unicode="&#xee;" horiz-adv-x="1138" d="M738 140l322 -50v-90h-974v90l320 50v1600l-266 50v90h598v-1740zM-80 2238v66l436 546h426l434 -546v-66h-112l-536 366l-536 -366h-112z" />
<glyph unicode="&#xef;" horiz-adv-x="1138" d="M738 140l322 -50v-90h-974v90l320 50v1600l-266 50v90h598v-1740zM1098 2388q0 -84 -56 -143t-140 -59q-43 0 -78 16q-38 17 -63 44q-26 28 -43 64q-16 35 -16 78q0 84 58 142t142 58q85 0 140 -58q56 -59 56 -142zM386 2388q0 -84 -56 -143t-140 -59q-43 0 -78 16 q-37 17 -64 44t-44 64q-16 35 -16 78t16 78q17 38 44 63q28 26 64 43q35 16 78 16q85 0 140 -58q56 -59 56 -142z" />
<glyph unicode="&#xf0;" d="M458 2204l456 262q-100 71 -201 124q-107 56 -237 96v156q169 -41 330 -107q158 -65 300 -159l532 312v-188l-388 -230q149 -121 262 -271q117 -155 199 -341q83 -189 128 -413q44 -222 49 -487q0 -11 2 -33t2 -37q0 -449 -214 -688q-214 -240 -666 -240q-424 0 -640 238 t-216 690q0 446 216 682t656 236q220 0 394 -70q-40 148 -130 311q-91 164 -244 309l-590 -344v192zM1532 888q0 177 -26 321q-25 140 -87 238t-161 148q-100 51 -246 51q-148 0 -244 -51q-97 -52 -152 -148q-56 -98 -78 -238q-22 -138 -22 -321q0 -184 22 -323 q23 -143 78 -242q56 -99 152 -152q97 -53 244 -53q145 0 246 53q99 51 161 152q61 99 87 242q26 145 26 323z" />
<glyph unicode="&#xf1;" d="M648 1728q56 32 133 68q75 35 161 66q80 29 168 49q82 19 156 19q108 0 198 -30q91 -30 155 -96q65 -66 102 -172q37 -105 37 -256v-1236l228 -50v-90h-810v90l250 50v1200q0 166 -81 261t-251 95q-56 0 -118 -6q-46 -4 -122 -14q-48 -6 -113 -19l-89 -19v-1498l254 -50 v-90h-812v90l226 50v1600l-226 50v90h536zM1290 2236q-97 0 -177 43q-81 43 -153 96q-76 55 -139 96q-67 43 -133 43q-62 0 -98 -21t-57 -56q-21 -34 -30 -77q-9 -42 -15 -84h-104q6 94 27 181q21 88 66 155q45 68 117 108q71 40 180 40q97 0 177 -43q79 -42 154 -96 q83 -59 140 -96q67 -43 131 -43q60 0 96 21t57 55q20 33 31 76q9 37 16 84h104q-6 -94 -27 -180q-21 -87 -66 -154q-45 -68 -117 -108q-71 -40 -180 -40z" />
<glyph unicode="&#xf2;" d="M1892 950q0 -478 -214 -734t-666 -256q-424 0 -640 254t-216 736q0 476 216 728t656 252q429 0 646 -247q218 -248 218 -733zM1532 950q0 191 -26 347q-26 153 -87 258q-62 105 -161 160q-100 55 -246 55q-149 0 -244 -55q-97 -56 -152 -160q-56 -105 -78 -258 q-22 -150 -22 -347q0 -199 22 -350q22 -154 78 -261t152 -164t244 -57q146 0 246 57q99 56 161 164q61 107 87 261q26 158 26 350zM1206 2238l-708 536v74h426l392 -544v-66h-110z" />
<glyph unicode="&#xf3;" d="M1892 950q0 -478 -214 -734t-666 -256q-424 0 -640 254t-216 736q0 476 216 728t656 252q429 0 646 -247q218 -248 218 -733zM1532 950q0 191 -26 347q-26 153 -87 258q-62 105 -161 160q-100 55 -246 55q-149 0 -244 -55q-97 -56 -152 -160q-56 -105 -78 -258 q-22 -150 -22 -347q0 -199 22 -350q22 -154 78 -261t152 -164t244 -57q146 0 246 57q99 56 161 164q61 107 87 261q26 158 26 350zM808 2238v66l392 544h426v-74l-708 -536h-110z" />
<glyph unicode="&#xf4;" d="M1892 950q0 -478 -214 -734t-666 -256q-424 0 -640 254t-216 736q0 476 216 728t656 252q429 0 646 -247q218 -248 218 -733zM1532 950q0 191 -26 347q-26 153 -87 258q-62 105 -161 160q-100 55 -246 55q-149 0 -244 -55q-97 -56 -152 -160q-56 -105 -78 -258 q-22 -150 -22 -347q0 -199 22 -350q22 -154 78 -261t152 -164t244 -57q146 0 246 57q99 56 161 164q61 107 87 261q26 158 26 350zM374 2238v66l436 546h426l434 -546v-66h-112l-536 366l-536 -366h-112z" />
<glyph unicode="&#xf5;" d="M1892 950q0 -478 -214 -734t-666 -256q-424 0 -640 254t-216 736q0 476 216 728t656 252q429 0 646 -247q218 -248 218 -733zM1532 950q0 191 -26 347q-26 153 -87 258q-62 105 -161 160q-100 55 -246 55q-149 0 -244 -55q-97 -56 -152 -160q-56 -105 -78 -258 q-22 -150 -22 -347q0 -199 22 -350q22 -154 78 -261t152 -164t244 -57q146 0 246 57q99 56 161 164q61 107 87 261q26 158 26 350zM1266 2236q-97 0 -177 43q-81 43 -153 96q-76 55 -139 96q-67 43 -133 43q-62 0 -98 -21t-57 -56q-21 -34 -30 -77q-9 -42 -15 -84h-104 q6 94 27 181q21 88 66 155q45 68 117 108q71 40 180 40q97 0 177 -43q79 -42 154 -96q83 -59 140 -96q67 -43 131 -43q60 0 96 21t57 55q20 33 31 76q9 37 16 84h104q-6 -94 -27 -180q-21 -87 -66 -154q-45 -68 -117 -108q-71 -40 -180 -40z" />
<glyph unicode="&#xf6;" d="M1892 950q0 -478 -214 -734t-666 -256q-424 0 -640 254t-216 736q0 476 216 728t656 252q429 0 646 -247q218 -248 218 -733zM1532 950q0 191 -26 347q-26 153 -87 258q-62 105 -161 160q-100 55 -246 55q-149 0 -244 -55q-97 -56 -152 -160q-56 -105 -78 -258 q-22 -150 -22 -347q0 -199 22 -350q22 -154 78 -261t152 -164t244 -57q146 0 246 57q99 56 161 164q61 107 87 261q26 158 26 350zM1572 2388q0 -84 -56 -143t-140 -59q-43 0 -78 16q-38 17 -63 44q-26 28 -43 64q-16 35 -16 78q0 84 58 142t142 58q85 0 140 -58 q56 -59 56 -142zM860 2388q0 -84 -56 -143t-140 -59q-43 0 -78 16q-37 17 -64 44t-44 64q-16 35 -16 78t16 78q17 38 44 63q28 26 64 43q35 16 78 16q85 0 140 -58q56 -59 56 -142z" />
<glyph unicode="&#xf7;" horiz-adv-x="2248" d="M1314 2126q0 -80 -56 -136t-136 -56q-82 0 -138 56t-56 136t56 136t138 56q80 0 136 -56t56 -136zM1314 594q0 -80 -56 -136t-136 -56q-82 0 -138 56t-56 136t56 136t138 56q80 0 136 -56t56 -136zM2076 1462v-204h-1906v204h1906z" />
<glyph unicode="&#xf8;" d="M1904 2044l-246 -348q114 -125 174 -310q60 -186 60 -436q0 -478 -214 -734t-666 -256q-291 0 -484 118l-172 -246h-216l254 356q-121 127 -179 317q-59 192 -59 445q0 476 216 728t656 252q297 0 500 -128l168 242h208zM516 950q0 -154 13 -277q13 -126 45 -227 l810 1156q-61 84 -152 126q-90 42 -220 42q-149 0 -244 -55q-97 -56 -152 -160q-56 -105 -78 -258q-22 -150 -22 -347zM1532 950q0 142 -15 263q-15 118 -47 217l-810 -1160q60 -75 143 -113q85 -39 209 -39q146 0 246 57q99 56 161 164q61 107 87 261q26 158 26 350z" />
<glyph unicode="&#xf9;" d="M626 536q0 -166 75 -255t245 -89q112 0 232 15q116 14 232 47v1486l-284 50v90h614v-1740l238 -50v-90h-548l-16 152q-58 -32 -138 -66q-69 -30 -167 -62q-84 -27 -175 -46q-88 -18 -160 -18q-108 0 -196 30t-151 96q-64 67 -98 171q-35 107 -35 255v1228l-240 50v90h572 v-1344zM1118 2238l-708 536v74h426l392 -544v-66h-110z" />
<glyph unicode="&#xfa;" d="M626 536q0 -166 75 -255t245 -89q112 0 232 15q116 14 232 47v1486l-284 50v90h614v-1740l238 -50v-90h-548l-16 152q-58 -32 -138 -66q-69 -30 -167 -62q-84 -27 -175 -46q-88 -18 -160 -18q-108 0 -196 30t-151 96q-64 67 -98 171q-35 107 -35 255v1228l-240 50v90h572 v-1344zM840 2238v66l392 544h426v-74l-708 -536h-110z" />
<glyph unicode="&#xfb;" d="M626 536q0 -166 75 -255t245 -89q112 0 232 15q116 14 232 47v1486l-284 50v90h614v-1740l238 -50v-90h-548l-16 152q-58 -32 -138 -66q-69 -30 -167 -62q-84 -27 -175 -46q-88 -18 -160 -18q-108 0 -196 30t-151 96q-64 67 -98 171q-35 107 -35 255v1228l-240 50v90h572 v-1344zM370 2238v66l436 546h426l434 -546v-66h-112l-536 366l-536 -366h-112z" />
<glyph unicode="&#xfc;" d="M626 536q0 -166 75 -255t245 -89q112 0 232 15q116 14 232 47v1486l-284 50v90h614v-1740l238 -50v-90h-548l-16 152q-58 -32 -138 -66q-69 -30 -167 -62q-84 -27 -175 -46q-88 -18 -160 -18q-108 0 -196 30t-151 96q-64 67 -98 171q-35 107 -35 255v1228l-240 50v90h572 v-1344zM1580 2388q0 -84 -56 -143t-140 -59q-43 0 -78 16q-38 17 -63 44q-26 28 -43 64q-16 35 -16 78q0 84 58 142t142 58q85 0 140 -58q56 -59 56 -142zM868 2388q0 -84 -56 -143t-140 -59q-43 0 -78 16q-37 17 -64 44t-44 64q-16 35 -16 78t16 78q17 38 44 63 q28 26 64 43q35 16 78 16q85 0 140 -58q56 -59 56 -142z" />
<glyph unicode="&#xfd;" d="M1836 1748l-734 -1866q-68 -172 -130 -302q-66 -140 -147 -243t-185 -162t-242 -59q-39 0 -91 2q-27 1 -73 7q-19 2 -68 11q-39 7 -76 16v406h94l66 -192q61 -46 172 -46q85 0 156 38q70 37 129 107q60 71 107 163q51 100 92 208l52 144l-716 1760l-192 50v90h872v-90 l-296 -54l508 -1314l492 1318l-294 50v90h700v-90zM808 2238v66l392 544h426v-74l-708 -536h-110z" />
<glyph unicode="&#xfe;" d="M1516 962q0 202 -32 348q-31 142 -95 235q-62 90 -155 133q-92 42 -210 42q-92 0 -205 -17q-104 -16 -185 -49v-1502q79 -16 186 -25q102 -9 204 -9q131 0 225 56q93 55 153 164q60 108 87 265t27 359zM304 2704l-276 48v90h606v-672q0 -55 -1 -88l-2 -103 q-2 -72 -4 -107q-4 -75 -5 -102q43 37 99 65q60 30 123 50q65 21 140 33q74 12 150 12q175 0 316 -62q140 -62 238 -185q98 -124 149 -304q51 -181 51 -417q0 -232 -52 -415q-53 -186 -156 -316q-104 -131 -261 -201q-156 -70 -367 -70q-97 0 -215 11q-113 11 -215 33 q0 -7 5 -55q2 -22 4 -64q0 -11 0.5 -31t1.5 -30q1 -19 1 -46v-508l328 -48v-94h-896v94l238 48v3434z" />
<glyph unicode="&#xff;" d="M1836 1748l-734 -1866q-68 -172 -130 -302q-66 -140 -147 -243t-185 -162t-242 -59q-39 0 -91 2q-27 1 -73 7q-19 2 -68 11q-39 7 -76 16v406h94l66 -192q61 -46 172 -46q85 0 156 38q70 37 129 107q60 71 107 163q51 100 92 208l52 144l-716 1760l-192 50v90h872v-90 l-296 -54l508 -1314l492 1318l-294 50v90h700v-90zM1626 2388q0 -84 -56 -143t-140 -59q-43 0 -78 16q-38 17 -63 44q-26 28 -43 64q-16 35 -16 78q0 84 58 142t142 58q85 0 140 -58q56 -59 56 -142zM914 2388q0 -84 -56 -143t-140 -59q-43 0 -78 16q-37 17 -64 44t-44 64 q-16 35 -16 78t16 78q17 38 44 63q28 26 64 43q35 16 78 16q85 0 140 -58q56 -59 56 -142z" />
<glyph unicode="&#x131;" horiz-adv-x="1138" d="M738 140l322 -50v-90h-974v90l320 50v1600l-266 50v90h598v-1740z" />
<glyph unicode="&#x152;" horiz-adv-x="3642" d="M2032 0q-69 0 -175 -2q-29 -1 -78 -2.5t-67 -1.5q-24 -1 -65.5 -2.5t-57.5 -1.5q-76 -2 -111 -2q-306 0 -548 78q-243 78 -412 243q-170 165 -260 422t-90 613t87 612q87 257 253 420q168 165 410 242q244 78 560 78q56 0 150 -2q49 -1 136 -5q89 -4 129 -5q84 -2 131 -2 h1244v-642h-130l-66 434q-76 9 -155 14q-92 6 -185 9q-59 2 -178 4q-56 1 -130 1h-274v-1048h562l60 320h128v-824h-128l-60 324h-562v-1094h364q124 0 234 3q131 4 198 7q99 5 151 10q63 6 93 12l116 496h130l-36 -708h-1368zM1478 148q49 0 139 5q80 4 145 15v2346 q-65 14 -130 18q-59 4 -154 4q-261 0 -432 -82q-172 -82 -274 -235t-144 -375t-42 -500q0 -280 42 -502q42 -221 144 -376q101 -153 274 -236q171 -82 432 -82z" />
<glyph unicode="&#x153;" horiz-adv-x="2958" d="M1728 946v-36q0 -143 20 -280q19 -131 79 -237q57 -101 166 -164q106 -61 281 -61q48 0 116 5q41 3 123 13q61 8 120 18q67 12 107 22v-112q-42 -29 -106 -57q-57 -25 -137 -49q-67 -20 -158 -35q-79 -13 -169 -13q-228 0 -381 66q-154 66 -249 196q-198 -262 -610 -262 q-387 0 -580 253q-194 254 -194 737q0 476 195 728t595 252q200 0 350 -69t248 -203q95 137 243 205q146 67 339 67q144 0 268 -40q127 -41 219 -134q93 -94 147 -252t54 -394v-164h-1086zM930 1770q-125 0 -204 -55q-80 -56 -126 -160q-45 -102 -65 -258q-19 -149 -19 -347 q0 -199 19 -350q20 -158 65 -261q47 -107 126 -164q80 -57 204 -57t208 57t135 164q50 105 73 261q22 151 22 350v54q-5 183 -27 325q-23 144 -75 241q-53 99 -134 149q-82 51 -202 51zM2126 1770q-101 0 -177 -47q-74 -46 -123 -133t-71 -209q-23 -126 -23 -275h734 q0 156 -16 275q-17 125 -55 209q-39 86 -104 133t-165 47z" />
<glyph unicode="&#x178;" horiz-adv-x="2958" d="M1676 1056v-896l426 -54v-106h-1238v106l426 54v884l-942 1480l-302 52v106h1134v-106l-360 -52l770 -1238l732 1238l-340 52v106h872v-106l-294 -52zM2056 3118q0 -84 -56 -143t-140 -59q-43 0 -78 16q-38 17 -63 44q-26 28 -43 64q-16 35 -16 78q0 84 58 142t142 58 q85 0 140 -58q56 -59 56 -142zM1344 3118q0 -84 -56 -143t-140 -59q-43 0 -78 16q-37 17 -64 44t-44 64q-16 35 -16 78t16 78q17 38 44 63q28 26 64 43q35 16 78 16q85 0 140 -58q56 -59 56 -142z" />
<glyph unicode="&#x2c6;" horiz-adv-x="1364" d="M36 2238v66l436 546h426l434 -546v-66h-112l-536 366l-536 -366h-112z" />
<glyph unicode="&#x2da;" horiz-adv-x="1364" d="M1086 2560q0 -83 -32 -158q-32 -74 -87 -129t-129 -87q-75 -32 -158 -32t-158 32q-74 32 -129 87t-87 129q-32 75 -32 158t32 158q32 74 87 129t129 87q75 32 158 32t158 -32q74 -32 129 -87t87 -129q32 -75 32 -158zM926 2560q0 51 -19 95q-20 46 -53 79t-79 53 q-44 19 -95 19q-54 0 -96 -19q-45 -20 -78 -53t-53 -79q-19 -44 -19 -95t19 -95q20 -47 53 -78q35 -34 78 -53q45 -20 96 -20q49 0 95 20q43 19 79 53q33 31 53 78q19 44 19 95z" />
<glyph unicode="&#x2dc;" horiz-adv-x="1364" d="M942 2236q-97 0 -177 43q-81 43 -153 96q-76 55 -139 96q-67 43 -133 43q-62 0 -98 -21t-57 -56q-21 -34 -30 -77q-9 -42 -15 -84h-104q6 94 27 181q21 88 66 155q45 68 117 108q71 40 180 40q97 0 177 -43q79 -42 154 -96q83 -59 140 -96q67 -43 131 -43q60 0 96 21 t57 55q20 33 31 76q9 37 16 84h104q-6 -94 -27 -180q-21 -87 -66 -154q-45 -68 -117 -108q-71 -40 -180 -40z" />
<glyph unicode="&#x2000;" horiz-adv-x="1758" />
<glyph unicode="&#x2001;" horiz-adv-x="3518" />
<glyph unicode="&#x2002;" horiz-adv-x="1758" />
<glyph unicode="&#x2003;" horiz-adv-x="3518" />
<glyph unicode="&#x2004;" horiz-adv-x="1172" />
<glyph unicode="&#x2005;" horiz-adv-x="878" />
<glyph unicode="&#x2006;" horiz-adv-x="586" />
<glyph unicode="&#x2007;" horiz-adv-x="586" />
<glyph unicode="&#x2008;" horiz-adv-x="438" />
<glyph unicode="&#x2009;" horiz-adv-x="702" />
<glyph unicode="&#x200a;" horiz-adv-x="194" />
<glyph unicode="&#x2010;" horiz-adv-x="1364" d="M152 812v306h1064v-306h-1064z" />
<glyph unicode="&#x2011;" horiz-adv-x="1364" d="M152 812v306h1064v-306h-1064z" />
<glyph unicode="&#x2013;" d="M2076 1056v-204h-2104v204h2104z" />
<glyph unicode="&#x2014;" horiz-adv-x="4096" d="M4124 1056v-204h-4152v204h4152z" />
<glyph unicode="&#x2018;" horiz-adv-x="1364" d="M394 1998q0 118 33 229t106 205q72 92 189 170q116 76 282 126v-156q-182 -58 -267 -141q-85 -82 -85 -195q0 -38 20 -61q19 -22 50 -42q24 -16 65 -37q34 -18 65 -44t50 -63q20 -38 20 -93q0 -108 -68 -164t-174 -56q-58 0 -109 21q-49 20 -91 62q-40 40 -63 101 t-23 138z" />
<glyph unicode="&#x2019;" horiz-adv-x="1364" d="M970 2400q0 -118 -33 -229t-106 -205q-72 -92 -189 -170q-114 -76 -282 -124v154q182 59 267 142q85 84 85 194q0 35 -20 61q-17 23 -50 44q-24 16 -65 37q-37 19 -65 43q-32 27 -50 62q-20 38 -20 93q0 108 68 165t174 57q56 0 108 -21q50 -20 92 -62q40 -41 63 -102 q23 -63 23 -139z" />
<glyph unicode="&#x201a;" horiz-adv-x="1364" d="M966 98q0 -118 -33 -229t-106 -205q-72 -92 -189 -170q-114 -76 -282 -124v154q182 59 267 142q85 84 85 194q0 35 -20 61q-17 23 -50 44q-24 16 -65 37q-37 19 -65 43q-32 27 -50 62q-20 38 -20 93q0 108 68 165t174 57q56 0 108 -21q50 -20 92 -62q40 -41 63 -102 q23 -63 23 -139z" />
<glyph unicode="&#x201c;" horiz-adv-x="1818" d="M1036 1998q0 118 33 229t106 205q72 92 189 170q116 76 282 126v-156q-182 -58 -267 -141q-85 -82 -85 -195q0 -38 20 -61q19 -22 50 -42q24 -16 65 -37q34 -18 65 -44t50 -63q20 -38 20 -93q0 -108 -68 -164t-172 -56q-58 0 -110 21q-51 20 -91 62q-39 40 -63 101 q-24 60 -24 138zM196 1998q0 118 33 229t106 205q72 92 189 170q116 76 282 126v-156q-182 -58 -267 -141q-85 -82 -85 -195q0 -38 20 -61q19 -22 50 -42q24 -16 65 -37q34 -18 65 -44t50 -63q20 -38 20 -93q0 -108 -68 -164t-172 -56q-58 0 -110 21q-51 20 -91 62 q-39 40 -63 101q-24 60 -24 138z" />
<glyph unicode="&#x201d;" horiz-adv-x="1818" d="M782 2400q0 -118 -33 -229t-106 -205q-72 -92 -189 -170q-114 -76 -282 -124v154q182 59 267 142q85 84 85 194q0 35 -20 61q-17 23 -50 44q-24 16 -65 37q-37 19 -65 43q-32 27 -50 62q-20 38 -20 93q0 108 68 165t174 57q56 0 108 -21q50 -20 92 -62q40 -41 63 -102 q23 -63 23 -139zM1622 2400q0 -118 -33 -229t-106 -205q-72 -92 -189 -170q-114 -76 -282 -124v154q182 59 267 142q85 84 85 194q0 35 -20 61q-17 23 -50 44q-24 16 -65 37q-37 19 -65 43q-32 27 -50 62q-20 38 -20 93q0 108 68 165t174 57q56 0 108 -21q51 -20 91 -62 q39 -41 63 -102t24 -139z" />
<glyph unicode="&#x201e;" horiz-adv-x="1818" d="M782 98q0 -118 -33 -229t-106 -205q-72 -92 -189 -170q-114 -76 -282 -124v154q182 59 267 142q85 84 85 194q0 35 -20 61q-17 23 -50 44q-24 16 -65 37q-37 19 -65 43q-32 27 -50 62q-20 38 -20 93q0 108 68 165t174 57q56 0 108 -21q50 -20 92 -62q40 -41 63 -102 q23 -63 23 -139zM1622 98q0 -118 -33 -229t-106 -205q-72 -92 -189 -170q-114 -76 -282 -124v154q182 59 267 142q85 84 85 194q0 35 -20 61q-17 23 -50 44q-24 16 -65 37q-37 19 -65 43q-32 27 -50 62q-20 38 -20 93q0 108 68 165t174 57q56 0 108 -21q51 -20 91 -62 q39 -41 63 -102t24 -139z" />
<glyph unicode="&#x2022;" horiz-adv-x="1434" d="M1204 1356q0 -101 -38 -191q-38 -89 -104 -155t-155 -104q-90 -38 -191 -38q-100 0 -190 38q-87 37 -154 104q-66 66 -104 155q-38 90 -38 191t38 191q38 89 104 155q67 67 154 104q90 38 190 38q101 0 191 -38q89 -38 155 -104t104 -155q38 -90 38 -191z" />
<glyph unicode="&#x2026;" horiz-adv-x="4096" d="M918 184q0 -52 -19 -94q-20 -44 -51 -77q-30 -32 -77 -52q-44 -19 -95 -19q-54 0 -96 19q-46 21 -76 52q-31 33 -51 77q-19 42 -19 94q0 51 19 95q20 46 51 77t76 51q42 19 96 19q51 0 95 -19q46 -20 77 -51t51 -77q19 -44 19 -95zM2290 184q0 -52 -19 -94 q-20 -44 -51 -77q-30 -32 -77 -52q-44 -19 -95 -19q-54 0 -96 19q-46 21 -76 52q-31 33 -51 77q-19 42 -19 94q0 51 19 95q20 46 51 77t76 51q42 19 96 19q51 0 95 -19q46 -20 77 -51t51 -77q19 -44 19 -95zM3662 184q0 -52 -19 -94q-20 -44 -51 -77q-30 -32 -77 -52 q-44 -19 -95 -19q-54 0 -96 19q-46 21 -76 52q-31 33 -51 77q-19 42 -19 94q0 51 19 95q20 46 51 77t76 51q42 19 96 19q51 0 95 -19q46 -20 77 -51t51 -77q19 -44 19 -95z" />
<glyph unicode="&#x202f;" horiz-adv-x="702" />
<glyph unicode="&#x2039;" horiz-adv-x="1364" d="M266 992l668 712h164l-456 -778l456 -778h-164l-668 712v132z" />
<glyph unicode="&#x203a;" horiz-adv-x="1364" d="M1098 860l-668 -712h-164l456 778l-456 778h164l668 -712v-132z" />
<glyph unicode="&#x2044;" horiz-adv-x="684" d="M-520 0h-204l1928 2682h200z" />
<glyph unicode="&#x2215;" horiz-adv-x="684" d="M-520 0h-204l1928 2682h200z" />
<glyph unicode="&#x205f;" horiz-adv-x="878" />
<glyph unicode="&#x20ac;" d="M286 1658q61 538 318 796q256 258 678 258q95 0 186 -8q88 -8 166 -21q93 -16 154 -32l150 -41l8 -504h-136l-40 266q-92 88 -208 133q-120 47 -238 47q-130 0 -238 -47q-104 -45 -185 -154q-78 -105 -130 -277t-71 -416h700v-162h-708q-4 -39 -4 -90v-92v-76 q0 -39 4 -70h708v-164h-700q41 -453 199 -671q159 -219 415 -219q85 0 156 16q80 18 136 44q67 31 112 65q52 39 84 77l50 318h134l-8 -548q-73 -27 -143 -47q-87 -25 -169 -41q-85 -17 -187 -28q-93 -10 -197 -10q-211 0 -381 70t-298 204q-127 133 -207 328t-110 442h-224 v164h212q-4 31 -4 70v72v93q0 52 4 93h-212v162h224z" />
<glyph unicode="&#x2122;" horiz-adv-x="4014" d="M508 1074v86l254 32v1368h-62q-162 0 -253 -7q-103 -8 -139 -17l-34 -250h-82v396h1418v-396h-82l-32 250q-43 10 -152 15q-120 5 -250 5h-58v-1364l254 -32v-86h-782zM2760 1074h-56l-570 1338v-1220l218 -32v-86h-570v86l208 32v1376l-208 32v82h540l488 -1166 l528 1166h508v-82l-204 -32v-1376l204 -32v-86h-696v86l216 32v1216z" />
<glyph horiz-adv-x="1228" d="M1004 1388v-318h-274v318h-722v194l782 1100h214v-1088h202v-206h-202zM730 2372h-4l-554 -778h558v778z" />
</font>
</defs>
</svg>
