<?xml version="1.0" standalone="no"?>
<!DOCTYPE svg PUBLIC "-//W3C//DTD SVG 1.1//EN" "http://www.w3.org/Graphics/SVG/1.1/DTD/svg11.dtd" >
<svg xmlns="http://www.w3.org/2000/svg">
<metadata>
This is a custom SVG webfont generated by Font Squirrel.
Designer    : Steve Matteson
Foundry     : Ascender Corporation
Foundry URL : httpwwwascendercorpcom
</metadata>
<defs>
<font id="webfontDS0SHySh" horiz-adv-x="2048" >
<font-face units-per-em="4096" ascent="3276" descent="-820" />
<missing-glyph horiz-adv-x="1024" />
<glyph unicode=" "  horiz-adv-x="1024" />
<glyph unicode="&#x09;" horiz-adv-x="1024" />
<glyph unicode="&#xa0;" horiz-adv-x="1024" />
<glyph unicode="!" horiz-adv-x="1364" d="M794 840h-230l-184 1842h598zM680 -58q-69 0 -130 26q-59 25 -105 71t-71 105q-26 61 -26 130q0 66 26 129q25 60 71 106t105 71q61 26 130 26q66 0 129 -26q60 -25 106 -71t71 -106q26 -63 26 -129q0 -69 -26 -130q-25 -59 -71 -105t-106 -71q-63 -26 -129 -26z" />
<glyph unicode="&#x22;" horiz-adv-x="2274" d="M1306 2682h516l-156 -962h-208zM454 2682h516l-156 -962h-208z" />
<glyph unicode="#" d="M1482 822l-152 -822h-286l152 822h-540l-148 -822h-292l152 822h-314v246h364l106 574h-470v246h516l146 794h288l-148 -794h540l148 794h286l-148 -794h312v-246h-356l-102 -574h458v-246h-512zM810 1642l-106 -574h540l108 574h-542z" />
<glyph unicode="$" d="M932 -40q-111 1 -227 15q-114 13 -220 33q-98 18 -193 44q-83 22 -146 50v640h186l72 -372q28 -38 89 -77q57 -37 133 -66q79 -31 154 -49q84 -21 152 -22v976q-138 54 -273 117q-137 64 -242 160q-108 99 -173 245q-66 148 -66 374q0 146 54 265t153 206t238 141 q141 55 309 68v258h204v-254q166 -6 325 -31q167 -26 287 -55v-558h-182l-64 286q-58 58 -158 103q-99 44 -208 55v-830l189 -78q106 -46 184 -89q91 -51 166 -114q78 -65 134 -153q57 -89 90 -205q33 -117 33 -269q0 -172 -54 -314t-156 -246t-250 -168t-336 -78v-280h-204 v272zM1504 660q0 89 -29 153q-28 61 -79 108q-48 44 -117 76q-61 28 -143 59v-902q178 32 273 159q95 128 95 347zM606 2134q0 -88 25 -145q26 -59 69 -101q43 -41 104 -72q51 -25 128 -58v750q-158 -24 -242 -123t-84 -251z" />
<glyph unicode="%" horiz-adv-x="4096" d="M1280 -40h-300l1896 2764h302zM1722 1990q0 -357 -161 -551q-160 -193 -499 -193q-322 0 -482 190t-160 554q0 355 161 545q161 189 493 189q318 0 483 -184t165 -550zM1290 1990q0 125 -11 232q-10 100 -38 172q-26 69 -71 106q-44 36 -108 36t-105 -36 q-41 -37 -65 -106q-24 -71 -33 -172q-9 -102 -9 -232q0 -132 9 -235t33 -175t65 -110t105 -38t108 38t71 110q28 74 38 175q11 108 11 235zM3712 692q0 -360 -160 -553t-498 -193q-323 0 -483 190q-161 191 -161 556q0 356 162 545t494 189q319 0 482 -184 q164 -185 164 -550zM3282 692q0 125 -11 232q-10 100 -38 172q-26 69 -71 106q-44 36 -108 36t-105 -36q-41 -37 -65 -106q-24 -71 -33 -172q-9 -102 -9 -232q0 -132 9 -235t33 -175t65 -110t105 -38t108 38t71 110q28 74 38 175q11 108 11 235z" />
<glyph unicode="&#x26;" horiz-adv-x="3412" d="M2086 2146q0 -140 -48 -240t-128 -174q-81 -75 -185 -127q-103 -51 -221 -99l760 -686q62 158 87 318q25 157 31 296l-222 52v128h954v-128l-220 -52l-54 -182q-29 -97 -71 -215q-39 -108 -97 -232q-56 -120 -132 -233l440 -396l232 -50v-126h-768l-238 220 q-160 -118 -378 -189q-219 -71 -508 -71q-286 0 -489 49q-206 50 -337 145q-132 96 -195 236t-63 322q0 180 57 308t147 219t201 150q115 60 219 101q-52 59 -100 132q-45 68 -80 149q-33 75 -53 169q-19 88 -19 194q0 118 40 223q41 107 130 189q89 81 233 130 q143 48 351 48q203 0 340 -46q140 -47 224 -125q86 -80 123 -184t37 -223zM1320 172q228 0 394 66q165 65 284 174l-954 888q-53 -37 -96 -80q-47 -47 -82 -113q-36 -68 -57 -158q-21 -91 -21 -215q0 -286 142 -424t390 -138zM1108 2178q0 -87 16 -152q18 -74 44 -127 q31 -63 68 -110q49 -61 86 -101q54 28 109 70q48 37 84 94q35 56 53 134t18 192q0 346 -224 346q-136 0 -195 -87q-59 -88 -59 -259z" />
<glyph unicode="'" horiz-adv-x="1138" d="M312 2682h516l-156 -962h-208z" />
<glyph unicode="(" horiz-adv-x="1364" d="M726 988q0 -237 17 -483q16 -236 71 -452q54 -214 153 -392q100 -180 265 -305v-228q-268 142 -465 309q-198 168 -328 386q-131 219 -195 504q-64 283 -64 663q0 378 64 659q64 283 195 501q129 216 328 384q193 164 465 308v-228q-166 -126 -265 -304 q-99 -179 -153 -391q-55 -216 -71 -450q-17 -244 -17 -481z" />
<glyph unicode=")" horiz-adv-x="1364" d="M132 -872v228q163 126 264 305q99 176 154 392t71 452q17 246 17 483t-17 481q-16 234 -71 450q-54 214 -154 391q-100 178 -264 304v228q270 -145 464 -308q199 -167 329 -384q131 -218 195 -501q64 -281 64 -659q0 -380 -64 -663q-64 -285 -195 -504t-329 -386 q-197 -166 -464 -309z" />
<glyph unicode="*" d="M1112 1790l146 -632h-466l140 640l-574 -472l-188 426l614 176l-614 180l188 426l574 -466l-140 634h466l-146 -634l576 454l190 -418l-624 -176l624 -172l-190 -422z" />
<glyph unicode="+" horiz-adv-x="2334" d="M1310 1216v-810h-286v810h-808v286h808v812h286v-812h810v-286h-810z" />
<glyph unicode="," horiz-adv-x="1024" d="M868 212q0 -142 -45 -269q-44 -125 -143 -236q-96 -107 -253 -196q-152 -86 -373 -145v184q118 36 191 83q79 51 124 102q47 54 68 105q21 52 21 90q0 41 -22 67q-24 28 -56 48q-38 23 -73 42q-36 20 -73 53q-33 30 -56 78q-22 45 -22 118q0 130 90 198q91 68 228 68 q78 0 147 -25q71 -25 126 -75q54 -48 88 -122q33 -72 33 -168z" />
<glyph unicode="-" horiz-adv-x="1364" d="M150 790v348h1064v-348h-1064z" />
<glyph unicode="." horiz-adv-x="1024" d="M512 -58q-69 0 -130 26q-59 25 -105 71t-71 105q-26 61 -26 130q0 66 26 129q25 60 71 106t105 71q61 26 130 26q66 0 129 -26q60 -25 106 -71t71 -106q26 -63 26 -129q0 -69 -26 -130q-25 -59 -71 -105t-106 -71q-63 -26 -129 -26z" />
<glyph unicode="/" horiz-adv-x="1138" d="M242 -40h-282l940 2738h280z" />
<glyph unicode="0" d="M1892 1352q0 -334 -53 -596q-52 -259 -161 -437q-108 -177 -274 -268t-392 -91q-424 0 -640 356t-216 1036q0 666 216 1019t656 353q424 0 644 -349t220 -1023zM1306 1352q0 270 -14 496q-14 218 -48 368q-35 152 -89 228q-55 78 -139 78t-137 -78q-53 -79 -83 -228 q-30 -150 -42 -368t-12 -496q0 -280 12 -501t42 -374q30 -151 83 -235q52 -82 137 -82q84 0 139 82q54 81 89 235q34 153 48 374q14 229 14 501z" />
<glyph unicode="1" d="M1370 220l466 -48v-172h-1508v172l464 48v2022l-462 -152v170l756 444h284v-2484z" />
<glyph unicode="2" d="M1872 0h-1700v378l318 329l265 270q120 126 211 238q92 113 153 234q62 122 93 259q32 140 32 314q0 120 -32 213q-30 88 -85 152q-52 61 -123 91q-70 30 -148 30q-123 0 -198 -26t-136 -78l-86 -388h-174v610q153 34 313 61q150 25 333 25q441 0 677 -182 q235 -181 235 -518q0 -158 -38 -289q-38 -129 -111 -243q-74 -115 -181 -222q-108 -108 -249 -228l-313 -260l-372 -318h1316v-452z" />
<glyph unicode="3" d="M1908 730q0 -182 -66 -325q-67 -144 -193 -242q-127 -99 -311 -151q-183 -52 -420 -52q-199 0 -394 23q-189 22 -346 57l-24 650h184l104 -430q62 -35 159 -67q93 -31 205 -31q131 0 228 44q95 43 160 122q63 76 95 186q31 106 31 236q0 144 -36 241t-98 156t-147 86 q-86 27 -181 33l-232 14v242l224 16q177 12 263 131q85 118 85 359q0 120 -29 212q-28 89 -80 150t-123 89q-73 29 -156 29q-108 0 -177 -33q-68 -32 -131 -71l-86 -388h-174v610q48 12 144 34q72 16 150 27q77 10 164 18q80 7 186 7q442 0 672 -162t230 -498 q0 -126 -33 -235q-32 -108 -101 -193q-67 -84 -173 -141q-104 -56 -249 -79q344 -42 510 -210q166 -167 166 -464z" />
<glyph unicode="4" d="M1704 530v-530h-538v530h-1110v326l1208 1840h440v-1756h268v-410h-268zM1166 1734q0 32 2 110q1 39 5 115q3 57 6 108q3 59 7 91l-798 -1218h778v794z" />
<glyph unicode="5" d="M960 1586q231 0 405 -46q175 -46 293 -142q117 -95 179 -245q61 -147 61 -355q0 -191 -58 -344q-59 -155 -178 -264q-121 -110 -303 -170q-183 -60 -431 -60q-199 0 -394 23q-189 22 -346 57l-24 650h184l104 -430q32 -18 78 -36q43 -17 99 -31q47 -12 110 -22 q57 -9 111 -9q126 0 213 45q86 45 142 126q54 79 80 194q25 110 25 251q0 148 -26 264q-25 113 -84 190t-151 114q-94 38 -229 38q-64 0 -107 -7q-50 -8 -84 -19q-33 -11 -69 -26l-62 -26h-200v1376h1400v-446h-1178v-704l78 17q48 10 95 17q61 9 119 14q66 6 148 6z" />
<glyph unicode="6" d="M1928 832q0 -208 -54 -370q-53 -160 -161 -274q-105 -111 -263 -170q-155 -58 -360 -58q-223 0 -401 86q-177 86 -299 257t-186 426q-64 253 -64 595q0 365 85 626q86 264 227 432q144 171 327 250q186 80 385 80q156 0 315 -24q157 -24 287 -62v-610h-174l-86 388 q-63 47 -141 76q-75 28 -161 28q-92 0 -173 -60q-82 -61 -143 -180q-63 -123 -103 -303q-41 -186 -53 -429q102 44 207 69q103 25 225 25q175 0 315 -49q141 -50 241 -148t154 -249q54 -150 54 -352zM1082 162q146 0 202 158q56 159 56 474q0 168 -26 283q-26 114 -69 181 q-44 68 -99 95q-56 27 -116 27q-92 0 -160 -12q-74 -13 -142 -34v-10q0 -274 20 -496q19 -215 63 -364q44 -150 110 -225q68 -77 161 -77z" />
<glyph unicode="7" d="M408 1916h-174v766h1714v-158l-1042 -2524h-478l1130 2236h-1058z" />
<glyph unicode="8" d="M1850 2022q0 -220 -108 -375t-304 -225q107 -41 194 -104q89 -65 150 -151q62 -87 96 -198q34 -109 34 -245q0 -380 -219 -572t-681 -192q-438 0 -657 189t-219 575q0 132 33 243q33 112 94 198q62 88 147 152t194 105q-194 74 -300 228t-106 378q0 157 53 287 q52 127 157 220q101 90 260 140q154 49 360 49q200 0 351 -49q153 -49 258 -141q105 -91 159 -221q54 -129 54 -291zM1344 724q0 138 -17 251q-16 107 -56 184q-39 75 -102 114t-157 39q-92 0 -151 -39q-60 -40 -94 -114q-36 -78 -49 -184q-14 -114 -14 -251q0 -132 14 -241 q13 -103 49 -176q34 -70 94 -108q58 -37 151 -37q95 0 157 37q63 37 102 108q40 72 56 176q17 108 17 241zM1282 2022q0 108 -12 200q-12 93 -43 159q-31 67 -82 104q-50 37 -129 37q-77 0 -124 -37q-48 -37 -76 -104t-39 -159q-11 -96 -11 -200q0 -112 11 -208 q11 -92 39 -156t76 -98q47 -34 124 -34q79 0 129 34q51 34 82 98q31 63 43 156q12 92 12 208z" />
<glyph unicode="9" d="M112 1864q0 207 61 365q62 161 176 266q115 107 279 162q162 55 368 55q231 0 403 -80q170 -79 282 -247q111 -166 165 -425q54 -258 54 -612q0 -388 -87 -653q-86 -264 -234 -428q-147 -163 -340 -235t-403 -72q-187 0 -332 22q-150 23 -290 64v610h174l86 -388 q71 -50 167 -78t187 -28q94 0 176 51t145 165q64 116 104 295q41 185 53 443q-96 -34 -198 -54q-105 -20 -216 -20q-173 0 -317 53q-143 53 -246 156t-160 257t-57 356zM700 1856q0 -153 23 -265q22 -107 64 -177q40 -67 98 -99q56 -31 127 -31q152 0 300 36v28 q0 578 -69 870t-243 292q-156 0 -228 -168t-72 -486z" />
<glyph unicode=":" horiz-adv-x="1364" d="M666 -58q-68 0 -131 26q-61 25 -105 71q-44 45 -69 105q-25 59 -25 130q0 69 25 129q25 61 69 106q44 46 105 71q63 26 131 26q69 0 130 -26q59 -25 105 -71t71 -106q26 -63 26 -129q0 -69 -26 -130q-25 -59 -71 -105t-105 -71q-61 -26 -130 -26zM666 1256q-68 0 -131 26 q-61 25 -105 71q-44 45 -69 105q-25 59 -25 130t25 131q25 61 69 106q43 44 105 70q60 25 131 25t130 -25q61 -26 105 -70q46 -46 71 -106q26 -63 26 -131q0 -69 -26 -130q-25 -59 -71 -105t-105 -71q-61 -26 -130 -26z" />
<glyph unicode=";" horiz-adv-x="1364" d="M670 1256q-68 0 -131 26q-61 25 -105 71q-44 45 -69 105q-25 59 -25 130t25 131q25 61 69 106q43 44 105 70q60 25 131 25t130 -25q61 -26 105 -70q46 -46 71 -106q26 -63 26 -131q0 -69 -26 -130q-25 -59 -71 -105t-105 -71q-61 -26 -130 -26zM1028 212q0 -142 -45 -269 q-44 -125 -143 -236q-96 -107 -253 -196q-153 -86 -375 -145v184q117 35 192 83q79 50 125 102q47 54 68 105q21 52 21 90q0 39 -23 67q-23 27 -57 48q-40 25 -74 42q-37 19 -74 53q-34 32 -57 78q-23 48 -23 118q0 65 25 114q26 51 68 84q43 34 102 51q60 17 129 17 q75 0 144 -25q70 -25 126 -75q55 -49 90 -122q34 -71 34 -168z" />
<glyph unicode="&#x37e;" horiz-adv-x="1364" d="M670 1256q-68 0 -131 26q-61 25 -105 71q-44 45 -69 105q-25 59 -25 130t25 131q25 61 69 106q43 44 105 70q60 25 131 25t130 -25q61 -26 105 -70q46 -46 71 -106q26 -63 26 -131q0 -69 -26 -130q-25 -59 -71 -105t-105 -71q-61 -26 -130 -26zM1028 212q0 -142 -45 -269 q-44 -125 -143 -236q-96 -107 -253 -196q-153 -86 -375 -145v184q117 35 192 83q79 50 125 102q47 54 68 105q21 52 21 90q0 39 -23 67q-23 27 -57 48q-40 25 -74 42q-37 19 -74 53q-34 32 -57 78q-23 48 -23 118q0 65 25 114q26 51 68 84q43 34 102 51q60 17 129 17 q75 0 144 -25q70 -25 126 -75q55 -49 90 -122q34 -71 34 -168z" />
<glyph unicode="&#x3c;" horiz-adv-x="2334" d="M204 1270v180l1904 936v-286l-1534 -740l1534 -742v-286z" />
<glyph unicode="=" horiz-adv-x="2334" d="M2108 1094v-288h-1904v288h1904zM2108 1912v-286h-1904v286h1904z" />
<glyph unicode="&#x3e;" horiz-adv-x="2334" d="M208 332v286l1536 742l-1536 740v286l1904 -936v-180z" />
<glyph unicode="?" d="M890 -58q-68 0 -131 26q-61 25 -105 71q-44 45 -69 105q-25 59 -25 130q0 69 25 129q25 61 69 106q44 46 105 71q63 26 131 26q69 0 130 -26q59 -25 105 -71t71 -106q26 -63 26 -129q0 -69 -26 -130q-25 -59 -71 -105t-105 -71q-61 -26 -130 -26zM982 780h-206l-114 626 l190 50q74 19 144 53q68 33 119 93t81 153t30 233t-24 239t-75 162q-50 62 -129 91q-77 28 -188 28q-96 0 -169 -24t-129 -60l-86 -388h-178v590q154 40 309 63q158 23 339 23q450 0 679 -177t229 -533q0 -134 -36 -256q-36 -120 -110 -222q-73 -100 -186 -175t-262 -117 l-174 -48z" />
<glyph unicode="@" horiz-adv-x="3810" d="M3596 1504q0 -206 -57 -394q-58 -189 -156 -349q-101 -163 -235 -293q-136 -132 -294 -225q-159 -94 -333 -143q-177 -50 -351 -50q-129 0 -191 68q-60 66 -65 182l-105 -87q-57 -46 -121 -81q-67 -37 -143 -59q-78 -23 -173 -23q-86 0 -155 36q-70 36 -117 103 q-49 69 -74 162q-26 96 -26 215q0 140 33 286q33 147 99 283q67 139 165 259q99 122 231 216q103 74 199 120q97 46 198 72t210 36q104 10 233 10q102 0 196 -7q97 -7 170 -15l-242 -1082q-10 -40 -18 -84q-10 -58 -14 -87l-10 -81q-4 -33 -4 -62q0 -45 17 -79 q17 -33 83 -33q107 0 198 49q93 50 168 134q77 86 135 199q59 114 99 246q40 129 61 274q21 142 21 282q0 248 -75 439q-75 190 -215 321q-137 128 -337 197q-195 67 -443 67q-245 0 -458 -65q-211 -64 -388 -184q-176 -119 -311 -284q-133 -163 -229 -365 q-94 -198 -142 -429q-48 -229 -48 -473q0 -258 73 -490q74 -236 223 -413q150 -178 377 -285q225 -106 535 -106q185 0 337 28q158 29 287 76q136 49 245 112q120 69 213 134l88 -128q-114 -91 -238 -168q-128 -79 -276 -137q-150 -59 -328 -93q-176 -34 -390 -34 q-368 0 -651 117t-475 321q-193 205 -290 478q-98 276 -98 586q0 286 66 546t189 482q122 221 297 403q172 180 391 308q216 127 471 196q254 69 538 69q356 0 624 -87q269 -87 447 -247q180 -162 269 -386q90 -226 90 -504zM1480 632q0 -145 43 -219q43 -75 99 -75 q42 0 84 13q45 14 86 33q40 18 78 44q38 25 60 46l240 1122q-11 4 -53 7q-39 3 -69 3q-98 0 -185 -27q-86 -27 -159 -113q-38 -45 -80 -134q-40 -85 -72 -197q-34 -119 -52 -240q-20 -132 -20 -263z" />
<glyph unicode="A" horiz-adv-x="2958" d="M856 146v-146h-816v146l200 54l954 2504h580l950 -2504l204 -54v-146h-1194v146l310 54l-256 694h-1030l-246 -694zM1282 2300l-442 -1186h872z" />
<glyph unicode="B" horiz-adv-x="2732" d="M1756 2020q0 113 -23 197q-23 83 -75 138t-135 81q-84 26 -201 26h-278v-934h294q123 0 203 34q82 35 129 97t67 154q19 89 19 207zM1958 782q0 266 -133 396t-435 130h-346v-1088q96 -5 184 -6q49 -3 150 -5q51 -1 120 -1q127 0 214 40q88 40 142 114q53 72 79 180 q25 104 25 240zM68 0v146l346 54v2284l-346 52v146h1302q298 0 498 -42t321 -120t172 -190t51 -254q0 -134 -45 -242q-45 -109 -121 -189q-78 -83 -176 -134q-102 -53 -210 -77q197 -19 341 -74q143 -54 236 -138q94 -85 137 -195q44 -112 44 -245q0 -173 -62 -320 q-62 -146 -197 -251q-136 -106 -346 -164q-213 -59 -509 -59q-240 0 -476 6t-436 6h-524z" />
<glyph unicode="C" horiz-adv-x="2958" d="M1630 -40q-336 0 -603 92q-263 91 -449 266q-183 172 -281 425q-97 249 -97 567q0 361 97 624q98 265 280 437q184 173 448 257q265 84 603 84q283 0 529 -41q244 -41 437 -93l12 -644h-180l-56 388q-128 87 -284 133q-159 47 -330 47q-211 0 -376 -61t-281 -201 q-115 -139 -175 -366q-60 -226 -60 -558q0 -292 60 -508t172 -358q113 -143 275 -213q165 -71 369 -71q226 0 395 60q170 60 265 142l64 440h182l-12 -680q-81 -33 -203 -64q-124 -32 -250 -53q-148 -25 -275 -37q-148 -14 -276 -14z" />
<glyph unicode="D" horiz-adv-x="2958" d="M2094 1340q0 313 -59 529q-58 214 -173 347q-114 132 -282 189t-388 57h-148v-2234q48 -4 87 -6q26 -1 78 -5q28 -2 82 -4q29 -1 101 -1q199 0 334 65q133 64 216 203q82 138 117 351q35 216 35 509zM1346 2682q324 0 585 -69q260 -69 445 -225q184 -156 283 -409 t99 -623q0 -330 -76 -582q-77 -255 -238 -428q-162 -174 -413 -264t-601 -90q-156 0 -240 1l-246 3q-124 2 -227 3q-71 1 -185 1h-460v146l344 54v2284l-344 52v146h1274z" />
<glyph unicode="E" horiz-adv-x="2732" d="M70 146l344 54v2284l-344 52v146h2284v-682h-182l-64 434q-76 9 -155 14q-92 6 -185 9q-59 2 -178 4q-56 1 -130 1h-416v-984h702l62 296h178v-824h-178l-62 304h-702v-1034h506q124 0 234 3q131 4 198 7q99 5 151 10q63 6 93 12l114 496h182l-38 -748h-2414v146z" />
<glyph unicode="F" horiz-adv-x="2502" d="M1044 1144v-944l446 -54v-146h-1394v146l318 54v2284l-344 52v146h2236v-722h-188l-64 474q-35 5 -107 10q-24 2 -73 4.5t-67 3.5q-51 3 -154 5q-79 1 -150 3q-94 2 -129 2h-88h-242v-1098h654l62 340h178v-904h-178l-62 344h-654z" />
<glyph unicode="G" horiz-adv-x="3186" d="M2812 140q-118 -38 -259 -71q-143 -33 -297 -57q-162 -25 -310 -38q-162 -14 -300 -14q-318 0 -584 87q-267 88 -457 258q-192 172 -298 423q-107 253 -107 582q0 351 104 615q104 263 297 438t468 262t615 87q169 0 317 -14q137 -13 267 -38t234 -55l222 -63v-616h-180 l-48 348q-72 49 -154 90q-80 40 -179 73q-95 31 -198 48q-107 17 -209 17q-204 0 -368 -57t-281 -194t-180 -366t-63 -571q0 -232 36 -406q36 -173 98 -302q62 -128 147 -213q87 -87 182 -135q100 -51 203 -71q106 -21 210 -21q117 0 230 19q117 20 212 51v776l-344 52v148 h1236v-148l-262 -52v-872z" />
<glyph unicode="H" horiz-adv-x="3186" d="M70 0v148l344 52v2282l-344 54v146h1318v-146l-344 -54v-992h1096v992l-344 54v146h1322v-146l-346 -54v-2282l346 -52v-148h-1322v148l344 52v1070h-1096v-1070l344 -52v-148h-1318z" />
<glyph unicode="I" horiz-adv-x="1594" d="M1112 200l344 -52v-148h-1318v148l344 52v2282l-344 54v146h1318v-146l-344 -54v-2282z" />
<glyph unicode="J" d="M1002 2484l-344 52v146h1278v-146l-304 -52v-1620q0 -184 -40 -320q-40 -137 -108 -238q-66 -98 -158 -167q-88 -66 -193 -107q-100 -39 -212 -56q-106 -16 -213 -16q-76 0 -141 4q-71 4 -143 12q-53 6 -133 19q-54 9 -109 25v608h178l60 -358q38 -46 108 -72 q72 -26 154 -26q138 0 229 96q91 95 91 284v1932z" />
<glyph unicode="K" horiz-adv-x="3186" d="M2938 2682v-146l-328 -52l-886 -782l1180 -1502l250 -54v-146h-876l-1002 1292l-232 -200v-892l386 -54v-146h-1360v146l344 54v2284l-344 52v146h1320v-146l-346 -52v-1092l1222 1092l-246 52v146h918z" />
<glyph unicode="L" horiz-adv-x="2732" d="M1458 2536l-414 -52v-2272h546q245 0 408 14q154 13 218 26l164 558h180l-76 -810h-2414v146l344 54v2284l-342 52v146h1386v-146z" />
<glyph unicode="M" horiz-adv-x="3866" d="M1764 0h-110l-990 2266v-2066l360 -54v-146h-954v146l344 54v2284l-344 52v146h1054l766 -1764l782 1764h1076v-146l-344 -52v-2284l344 -54v-146h-1334v146l360 54v2066z" />
<glyph unicode="N" horiz-adv-x="2958" d="M2310 2484l-360 52v146h954v-146l-344 -52v-2484h-234l-1654 2156v-1956l360 -54v-146h-954v146l344 54v2284l-344 52v146h918l1314 -1714v1516z" />
<glyph unicode="O" horiz-adv-x="3186" d="M864 1344q0 -283 34 -500q35 -222 118 -372q85 -153 225 -232q142 -80 353 -80q212 0 352 80q139 79 224 232q83 150 118 372q34 217 34 500q0 282 -34 496q-35 219 -118 366t-224 226q-140 78 -352 78t-353 -78t-225 -226q-83 -147 -118 -366q-34 -214 -34 -496z M200 1344q0 355 92 614q92 258 270 426q180 169 437 248q261 80 595 80q322 0 582 -80q257 -79 438 -248q180 -168 276 -426t96 -614t-96 -617q-96 -262 -276 -431q-182 -171 -438 -253q-260 -83 -582 -83t-582 83q-256 82 -439 253q-180 169 -277 431q-96 261 -96 617z" />
<glyph unicode="P" horiz-adv-x="2502" d="M1742 1888q0 162 -28 270q-29 110 -91 177q-63 67 -166 97t-253 30h-158v-1190h166q152 0 253 39t163 116q63 78 88 192q26 118 26 269zM1046 1052v-852l446 -54v-146h-1396v146l318 54v2284l-344 52v146h1182q338 0 555 -61q219 -61 348 -168q129 -106 180 -251 q51 -144 51 -310t-43 -316q-44 -154 -154 -268q-111 -116 -301 -186q-189 -70 -482 -70h-360z" />
<glyph unicode="Q" horiz-adv-x="3186" d="M200 1344q0 355 92 614q92 258 270 426q180 169 437 248q261 80 595 80q322 0 582 -80q257 -79 438 -248q180 -168 276 -426t96 -614q0 -254 -50 -463q-49 -206 -146 -366q-96 -159 -235 -271q-140 -113 -317 -180l100 -122q84 -106 160 -179q73 -70 136 -113 q62 -43 113 -59q53 -17 95 -17q106 0 164 16v-172q-18 -8 -73 -23q-51 -13 -117 -27q-71 -15 -140 -23q-74 -9 -142 -9q-162 0 -282 33q-119 33 -220 99q-98 64 -191 165q-91 99 -195 231l-76 96q-319 2 -572 87q-254 86 -431 255q-178 170 -272 429q-95 261 -95 613z M864 1344q0 -283 34 -500q35 -222 118 -372q85 -153 225 -232q142 -80 353 -80q212 0 352 80q139 79 224 232q83 150 118 372q34 217 34 500q0 282 -34 496q-35 219 -118 366t-224 226q-140 78 -352 78t-353 -78t-225 -226q-83 -147 -118 -366q-34 -214 -34 -496z" />
<glyph unicode="R" horiz-adv-x="2958" d="M1046 1136v-936l344 -54v-146h-1294v146l318 54v2284l-344 52v146h1282q338 0 562 -55q226 -55 362 -154q135 -98 194 -237q58 -137 58 -304q0 -128 -28 -240q-29 -115 -91 -210q-64 -98 -166 -170q-103 -74 -255 -120l716 -992l290 -54v-146h-868l-748 1136h-332z M1904 1928q0 158 -32 263q-31 103 -102 163q-70 60 -180 84t-264 24h-280v-1106h290q156 0 267 32q107 31 176 101q67 69 96 177q29 110 29 262z" />
<glyph unicode="S" horiz-adv-x="2278" d="M218 822h176l90 -430q44 -50 106 -89q69 -43 144 -73q82 -32 171 -50q91 -18 185 -18q155 0 266 35q109 34 178 97q67 61 99 149q31 86 31 191q0 121 -61 198q-62 79 -162 134q-99 55 -229 99l-263 91q-133 47 -263 110q-127 61 -229 157q-101 95 -162 231 q-61 135 -61 334q0 355 241 539q242 185 705 185q105 0 199 -7q112 -8 197 -19q103 -13 184 -28l164 -32v-638h-178l-90 368q-88 64 -202 106t-274 42q-136 0 -233 -27t-159 -75q-61 -48 -90 -116q-28 -66 -28 -152q0 -107 62 -180q61 -71 162 -124q99 -52 229 -94 q141 -46 264 -91q139 -51 264 -112q127 -62 229 -158q100 -95 162 -231q62 -138 62 -330q0 -195 -56 -354q-55 -157 -178 -269q-122 -111 -312 -171t-460 -60q-130 0 -258 12q-121 11 -243 32q-105 18 -213 46q-92 24 -166 52v720z" />
<glyph unicode="T" horiz-adv-x="2732" d="M620 0v146l426 54v2270h-102q-262 0 -416 -12q-158 -12 -228 -28l-54 -498h-182v750h2606v-750h-184l-54 498q-67 15 -247 26q-164 10 -409 10h-98v-2266l426 -54v-146h-1484z" />
<glyph unicode="U" horiz-adv-x="2958" d="M1676 244q166 0 283 49q121 50 196 136q77 88 113 209q36 122 36 268v1578l-360 52v146h912v-146l-304 -52v-1562q0 -179 -49 -350q-50 -173 -167 -308q-118 -136 -318 -219q-201 -83 -500 -83q-281 0 -488 67q-208 67 -347 193t-208 307t-69 409v1546l-304 52v146h1278 v-146l-344 -52v-1574q0 -150 38 -275q37 -122 116 -210t199 -134q123 -47 287 -47z" />
<glyph unicode="V" horiz-adv-x="2958" d="M2912 2682v-146l-254 -54l-1036 -2544h-266l-1090 2544l-220 54v146h1166v-146l-278 -54l754 -1758l704 1758l-270 54v146h790z" />
<glyph unicode="W" horiz-adv-x="4096" d="M3798 2484l-796 -2546h-246l-668 1654l-662 -1654h-246l-888 2546l-234 52v146h1204v-146l-314 -52l572 -1598l628 1568h250l630 -1564l474 1594l-338 52v146h868v-146z" />
<glyph unicode="X" horiz-adv-x="2958" d="M660 200l332 -54v-146h-916v146l296 54l862 1096l-768 1188l-302 52v146h1306v-146l-340 -52l468 -724l570 724l-332 52v146h918v-146l-296 -52l-730 -926l878 -1358l304 -54v-146h-1306v146l340 54l-580 894z" />
<glyph unicode="Y" horiz-adv-x="2958" d="M1822 1056v-856l426 -54v-146h-1484v146l426 54v844l-816 1440l-302 52v146h1380v-146l-360 -52l612 -1124l592 1124l-328 52v146h912v-146l-284 -52z" />
<glyph unicode="Z" horiz-adv-x="2732" d="M196 228l1484 2242h-480q-262 0 -414 -12q-156 -12 -226 -28l-62 -422h-178v674h2072v-212l-1494 -2262h560q138 0 253 7q123 7 225 18q71 7 178 22q61 8 112 19l118 512h180l-54 -786h-2274v228z" />
<glyph unicode="[" horiz-adv-x="1364" d="M304 -548v3390h912v-134l-406 -82v-2958l406 -82v-134h-912z" />
<glyph unicode="\" horiz-adv-x="1138" d="M-40 2698h280l940 -2738h-282z" />
<glyph unicode="]" horiz-adv-x="1364" d="M148 -548v134l406 82v2958l-406 82v134h912v-3390h-912z" />
<glyph unicode="^" horiz-adv-x="2380" d="M1850 778l-660 1522l-660 -1522h-286l856 1904h180l856 -1904h-286z" />
<glyph unicode="_" d="M-32 -570v288h2112v-288h-2112z" />
<glyph unicode="`" horiz-adv-x="1364" d="M904 2236l-728 536v74h570l330 -546v-64h-172z" />
<glyph unicode="a" d="M1092 1922q151 0 284 -26q129 -25 224 -87q94 -61 146 -161t52 -246v-1222l188 -48v-132h-692l-44 144l-89 -58q-51 -32 -117 -60q-61 -27 -148 -47q-80 -19 -182 -19q-164 0 -275 42q-112 42 -179 117q-68 76 -98 178q-30 103 -30 223q0 194 68 310t183 179 q117 64 268 83q153 20 325 24l244 6v274q0 165 -68 253q-68 87 -210 87q-111 0 -201 -31q-93 -32 -175 -73l-76 -234h-132v454l175 26q55 8 169 22q76 9 181 16q95 6 209 6zM1220 944l-168 -6q-87 -4 -152 -24q-62 -19 -107 -67q-43 -46 -64 -123q-21 -76 -21 -192 q0 -170 60 -250t156 -80t164 21q71 22 132 49v672z" />
<glyph unicode="b" horiz-adv-x="2278" d="M1526 994q0 202 -26 341q-25 136 -76 220q-50 84 -123 118q-75 35 -165 35q-73 0 -166 -17q-89 -16 -148 -51v-1438q65 -17 149 -24q91 -8 165 -8q108 0 182 54q75 55 121 159q48 108 67 259q20 158 20 352zM244 2666l-192 46v130h770v-690q0 -63 -5 -178 q-5 -104 -15 -200q42 35 105 64q58 27 132 49q73 22 145 32q77 11 144 11q210 0 358 -57t243 -173q96 -117 139 -292q44 -178 44 -416q0 -228 -57 -417q-57 -190 -171 -326t-287 -213q-171 -76 -405 -76q-192 0 -437 39q-256 41 -511 97v2570z" />
<glyph unicode="c" horiz-adv-x="1818" d="M1716 114q-47 -37 -113 -66q-58 -26 -142 -47q-69 -18 -159 -29q-79 -10 -162 -10q-269 0 -458 67q-190 67 -310 193q-121 127 -176 308q-56 183 -56 414q0 256 74 445q73 187 201 307t295 177q168 57 354 57q172 0 325 -21q159 -22 285 -49v-556h-144l-84 330 q-34 26 -63 41q-36 19 -67 28q-42 12 -79 16q-48 5 -99 5q-78 0 -152 -45q-75 -46 -133 -138q-59 -94 -95 -239q-36 -146 -36 -346q0 -165 23 -306q23 -139 81 -236q60 -99 160 -151q103 -53 258 -53q133 0 257 16q126 16 215 42v-154z" />
<glyph unicode="d" horiz-adv-x="2278" d="M1466 106l-91 -57q-44 -26 -100 -46q-53 -19 -124 -31q-69 -12 -161 -12q-416 0 -620 239t-204 735q0 226 50 412q49 182 155 314q103 129 266 200q159 70 383 70q218 0 440 -54q-5 23 -6 62q-2 45 -3 85l-2 89q-1 29 -1 74v476l-192 48v132h770v-2662l206 -48v-132h-724 zM752 950q0 -220 30 -367q30 -148 81 -236q52 -90 117 -127q67 -38 136 -38q102 0 179 24q74 23 153 62v1416q-75 21 -154 32q-69 10 -162 10q-179 0 -280 -197q-100 -196 -100 -579z" />
<glyph unicode="e" horiz-adv-x="1818" d="M988 1926q168 0 300 -40q135 -41 228 -137q94 -97 145 -258t51 -403v-164h-986v-32q0 -128 11 -257q11 -124 60 -218q50 -96 150 -151q101 -56 279 -56q118 0 230 18q119 19 214 40v-154q-44 -27 -116 -56q-67 -27 -153 -49q-76 -19 -175 -34q-88 -13 -182 -13 q-243 0 -414 64q-172 64 -281 190q-110 126 -159 310q-50 186 -50 424q0 493 211 734q212 242 637 242zM966 1724q-72 0 -118 -42t-73 -118q-26 -75 -37 -186q-10 -104 -10 -244h436q0 122 -5 244q-5 110 -24 186q-20 77 -59 118q-40 42 -110 42z" />
<glyph unicode="f" horiz-adv-x="1364" d="M314 1672h-284v138l284 78v202q0 200 52 347q53 151 149 248q99 100 238 149q142 50 319 50q44 0 91 -3q34 -2 92 -8q46 -5 83 -12q38 -7 66 -15v-448h-128l-58 218q-18 18 -49 33t-77 15q-44 0 -81 -27q-38 -27 -63 -88q-27 -64 -41 -158q-15 -97 -15 -237v-274h382 v-208h-382v-1492l306 -48v-132h-1088v132l204 48v1492z" />
<glyph unicode="g" d="M514 694q-356 150 -356 586q0 160 57 281q56 120 165 203q107 82 265 124q157 42 355 42q64 0 130 -6q78 -7 123 -13q65 -9 101 -16q47 -10 64 -15l450 222l70 -86l-228 -324q62 -77 93 -182t31 -230q0 -161 -56 -285q-55 -122 -163 -207q-107 -84 -264 -126t-359 -42 q-85 0 -162 7q-95 9 -144 17l-48 -152q1 -28 22 -58q19 -27 52 -51t76 -37q45 -14 96 -14h438q329 0 508 -128q178 -127 178 -400q0 -125 -49 -250q-50 -127 -169 -228t-321 -166q-199 -64 -505 -64q-226 0 -390 35q-160 34 -265 95q-101 59 -152 140q-49 79 -49 168 q0 58 27 108t75 96q43 42 113 89q65 43 141 87q-33 12 -85 47q-49 33 -93 84q-43 50 -75 119q-31 66 -31 150zM1570 -332q0 94 -66 142t-188 48h-634q-82 -60 -129 -134t-47 -156q0 -44 20 -92q19 -46 72 -82q54 -37 141 -59q90 -23 227 -23q158 0 272 27q115 27 188 75 q75 49 109 113q35 65 35 141zM988 820q148 0 214 115t66 345q0 229 -65 339q-64 109 -215 109q-138 0 -201 -109t-63 -339q0 -229 62 -345q61 -115 202 -115z" />
<glyph unicode="h" horiz-adv-x="2278" d="M872 2028q0 -44 -1 -71l-3 -85l-4 -85l-2.5 -40.5t-1.5 -30.5l137 70q83 42 159 70q87 33 173 53q89 21 179 21q114 0 210 -30t165 -96q70 -67 107 -172q38 -108 38 -256v-1196l188 -48v-132h-934v132l168 48v1118q0 167 -71 262q-70 94 -203 94q-151 0 -304 -68v-1406 l172 -48v-132h-934v132l184 48v2482l-192 48v132h770v-814z" />
<glyph unicode="i" horiz-adv-x="1138" d="M872 180l206 -48v-132h-988v132l204 48v1520l-192 48v132h770v-1700zM274 2536q0 64 24 120q25 57 66 97q43 41 98 65q56 24 120 24t120 -24t97 -65t65 -97t24 -120t-24 -120q-24 -55 -65 -98q-40 -41 -97 -66q-56 -24 -120 -24t-120 24t-98 66t-66 98t-24 120z" />
<glyph unicode="j" horiz-adv-x="1364" d="M1106 2536q0 -64 -24 -120t-66 -98t-98 -66t-118 -24q-64 0 -120 24t-98 66t-66 98t-24 120q0 62 24 118t66 98t98 66t120 24q62 0 118 -24t98 -66t66 -98t24 -118zM1090 -78q0 -210 -62 -363q-61 -151 -168 -247q-108 -97 -248 -140q-144 -44 -302 -44q-94 0 -180 10 q-100 12 -164 26v450h128l86 -228q18 -15 40 -27q20 -11 58 -11q44 0 86 27t75 87q34 62 53 157q20 100 20 239v1822l-332 68v132h910v-1958z" />
<glyph unicode="k" horiz-adv-x="2278" d="M872 902l734 800l-200 46v132h716v-132l-216 -44l-448 -472l646 -1052l168 -48v-132h-904v132l110 48l-376 658l-230 -160v-498l186 -48v-132h-942v132l178 48v2482l-192 48v132h770v-1940z" />
<glyph unicode="l" horiz-adv-x="1138" d="M862 180l206 -48v-132h-988v132l204 48v2482l-192 48v132h770v-2662z" />
<glyph unicode="m" horiz-adv-x="3412" d="M868 1716l136 70q81 41 156 70q87 33 169 53q87 21 177 21q156 0 272 -57t176 -187q64 38 147 81q79 42 174 79q92 36 187 60q96 24 184 24q114 0 208 -30q93 -30 161 -96q67 -66 103 -172t36 -256v-1196l188 -48v-132h-934v132l168 48v1118q0 167 -65 262 q-64 94 -197 94q-70 0 -157 -23q-80 -21 -163 -61q11 -42 15 -91q5 -55 5 -103v-1196l188 -48v-132h-934v132l168 48v1118q0 167 -65 262q-64 94 -197 94q-76 0 -151 -22q-85 -25 -151 -56v-1396l172 -48v-132h-934v132l184 48v1520l-184 48v132h730z" />
<glyph unicode="n" horiz-adv-x="2278" d="M868 1716l136 70q81 41 156 70q88 33 170 53q88 21 178 21q114 0 210 -30t165 -96q70 -67 107 -172q38 -108 38 -256v-1196l188 -48v-132h-934v132l168 48v1118q0 167 -71 262q-70 94 -203 94q-151 0 -304 -68v-1406l172 -48v-132h-934v132l184 48v1520l-184 48v132h730z " />
<glyph unicode="o" d="M1892 950q0 -241 -49 -424q-50 -186 -155 -310q-107 -127 -273 -191q-168 -65 -403 -65q-223 0 -384 64q-163 65 -267 190q-106 127 -155 311q-50 186 -50 425q0 236 50 421q49 182 156 307q105 123 271 188q164 64 395 64q446 0 655 -249q209 -250 209 -731zM1306 950 q0 194 -12 340q-12 145 -44 244q-31 97 -88 146q-56 48 -146 48q-88 0 -142 -48t-83 -146q-28 -97 -39 -244q-10 -139 -10 -340q0 -203 10 -343q10 -146 39 -247q28 -100 83 -150t142 -50q90 0 146 50q57 51 88 150q32 103 44 247q12 147 12 343z" />
<glyph unicode="p" horiz-adv-x="2278" d="M818 1784q41 28 97 57q49 25 116 46q60 19 139 31q76 12 168 12q392 0 583 -230t191 -726q0 -228 -51 -415t-157 -320q-106 -132 -268 -206q-161 -73 -384 -73q-112 0 -212 13q-112 15 -216 41q1 -8 2.5 -29t2.5 -31q2 -27 4 -81l2 -84q1 -27 1 -71v-410l276 -48v-132 h-1058v132l204 48v2392l-206 48v132h762zM1526 960q0 220 -28 363q-28 145 -76 230t-111 120q-64 35 -133 35q-104 0 -189 -22q-87 -22 -153 -54v-1418q162 -42 338 -42q180 0 266 198q86 199 86 590z" />
<glyph unicode="q" horiz-adv-x="2278" d="M754 896q0 -207 28 -341q29 -139 79 -220q52 -84 125 -118q75 -35 168 -35q76 0 161 21t143 55v1432q-61 16 -144 25q-80 9 -160 9q-108 0 -184 -55t-124 -160q-47 -103 -70 -260q-22 -151 -22 -353zM2036 -692l204 -48v-132h-1058v132l276 48v430q0 63 5 178 q5 104 15 200q-87 -69 -212 -113q-123 -43 -278 -43q-418 0 -619 247t-201 741q0 229 52 409q53 183 161 309q111 129 277 196q169 68 400 68q52 0 134 -5q74 -5 150 -12l148 -15l126 -14l238 86h182v-2662z" />
<glyph unicode="r" horiz-adv-x="1818" d="M922 1490q47 53 129 136q74 76 168 148q91 70 194 118t209 48h108v-686h-112l-118 252q-68 0 -144 -16q-80 -17 -154 -43q-76 -27 -147 -60q-67 -31 -123 -65v-1142l302 -48v-132h-1124v132l244 48v1520l-244 48v132h790z" />
<glyph unicode="s" horiz-adv-x="1594" d="M1494 596q0 -148 -45 -266q-44 -117 -138 -200q-93 -83 -235 -126q-144 -44 -336 -44q-96 0 -194 12q-92 11 -182 29q-69 13 -147 34q-64 17 -89 27v512h132l76 -264q30 -30 74 -59q45 -29 98 -53q56 -25 116 -38q64 -14 128 -14q174 0 259 75t85 191q0 64 -25 110 t-79 82q-55 37 -137 68q-85 33 -199 68q-96 30 -192 75t-171 117q-76 73 -122 178q-47 108 -47 260q0 136 53 240t145 175t216 108q123 37 266 37q140 0 281 -18q153 -19 273 -40v-482h-132l-64 220q-27 27 -66 50q-42 25 -89 42q-53 19 -103 29q-57 11 -104 11 q-143 0 -213 -59q-69 -59 -69 -161q0 -65 29 -112q28 -45 86 -82q57 -36 138 -66q90 -33 187 -62q112 -35 208 -81q95 -46 171 -118q72 -69 115 -169q42 -98 42 -236z" />
<glyph unicode="t" horiz-adv-x="1364" d="M876 -40q-150 0 -257 36q-108 37 -175 99q-69 64 -100 150q-32 88 -32 189v1238h-246v130l290 78l234 426h300v-426h396v-208h-396v-1202q0 -130 54 -196t142 -66q71 0 135 10q73 11 125 22v-170q-32 -22 -82 -40q-57 -21 -119 -35q-57 -13 -136 -25q-67 -10 -133 -10z " />
<glyph unicode="u" horiz-adv-x="2278" d="M1410 164l-136 -70q-81 -41 -156 -70q-88 -33 -170 -53q-88 -21 -178 -21q-114 0 -210 30t-165 96q-70 67 -107 172q-38 108 -38 256v1196l-188 48v132h766v-1298q0 -167 71 -262q70 -94 203 -94q151 0 304 68v1406l-172 48v132h750v-1700l184 -48v-132h-730z" />
<glyph unicode="v" d="M1912 1708l-752 -1748h-242l-786 1740l-132 48v132h962v-132l-224 -52l482 -1072l434 1076l-220 48v132h614v-132z" />
<glyph unicode="w" horiz-adv-x="2958" d="M1748 1692l434 -1070l364 1078l-220 48v132h610v-132l-144 -40l-632 -1748h-242l-430 1054l-428 -1054h-242l-666 1740l-140 48v132h930v-132l-224 -52l404 -1074l436 1070h190z" />
<glyph unicode="x" d="M62 1750v130h1004v-130l-210 -54l274 -422l362 426l-188 50v130h640v-130l-166 -42l-528 -620l596 -916l180 -42v-130h-1004v130l210 46l-328 506l-436 -510l188 -42v-130h-640v130l168 32l600 704l-540 834z" />
<glyph unicode="y" d="M924 -58l-752 1758l-132 48v132h962v-132l-224 -52l442 -1040l394 1044l-220 48v132h614v-132l-136 -40l-742 -1826q-69 -176 -130 -304q-66 -140 -147 -243q-79 -101 -185 -161q-103 -58 -242 -58q-43 0 -97 2q-28 1 -78 7q-35 4 -74 12q-62 12 -81 17v484h120l86 -252 q27 -22 63 -34q35 -12 85 -12q82 0 143 42t111 113q48 69 93 166l91 201z" />
<glyph unicode="z" horiz-adv-x="1818" d="M80 0v90l864 1610h-214q-49 0 -111 -5q-49 -4 -104 -14q-52 -10 -87 -22q-41 -15 -58 -29l-62 -310h-144v560h1460v-98l-864 -1602h300q58 0 115 7q66 8 118 19t106 29q49 16 79 39l106 434h144l-54 -708h-1594z" />
<glyph unicode="{" horiz-adv-x="1614" d="M1184 -548q-153 0 -271 41q-115 40 -195 118q-78 76 -117 185q-39 108 -39 244v590q0 115 -29 197q-28 80 -84 133q-54 51 -135 77q-76 24 -182 29v170q205 6 317 105q113 99 113 327v588q0 282 156 434q157 152 466 152h270v-174h-124q-139 0 -197 -88q-59 -89 -59 -262 v-660q0 -101 -31 -184q-32 -86 -85 -149q-54 -64 -128 -108q-72 -42 -160 -61v-6q91 -20 164 -63q74 -44 128 -108q55 -65 83 -149q29 -85 29 -186v-668q0 -172 59 -261t197 -89h124v-174h-270z" />
<glyph unicode="|" horiz-adv-x="902" d="M308 -884v3726h286v-3726h-286z" />
<glyph unicode="}" horiz-adv-x="1614" d="M160 -548v174h124q138 0 197 89t59 261v668q0 101 29 186q28 84 83 149q54 64 128 108q73 43 164 63v6q-90 18 -162 61q-74 44 -128 108t-84 149q-30 84 -30 184v660q0 173 -59 262q-58 88 -197 88h-124v174h270q309 0 466 -152q156 -152 156 -434v-588q0 -228 113 -327 q112 -99 317 -105v-170q-106 -5 -182 -29q-81 -26 -135 -77q-56 -53 -84 -133q-29 -82 -29 -197v-590q0 -136 -39 -244q-39 -109 -117 -185q-80 -78 -195 -118q-118 -41 -271 -41h-270z" />
<glyph unicode="~" horiz-adv-x="2130" d="M1522 962q-96 0 -184 36t-168 90q-82 55 -154 116l-143 116q-68 53 -134 90q-65 36 -127 36q-68 0 -118 -24q-51 -25 -85 -81q-36 -60 -58 -150q-24 -100 -37 -229h-282q14 138 42 276q28 137 90 247q60 108 169 178q107 69 279 69q79 0 148 -22q68 -22 134 -57 q57 -31 124 -79q48 -34 114 -88l81 -70q42 -37 100 -78q56 -40 107 -64q55 -26 102 -26q66 0 114 27t82 85q34 57 58 150q23 88 40 222h288q-19 -141 -49 -274q-32 -140 -94 -248q-63 -110 -168 -179t-271 -69z" />
<glyph unicode="&#xa1;" horiz-adv-x="1364" d="M566 1024h230l184 -1842h-598zM680 1922q66 0 129 -26q60 -25 106 -71t71 -106q26 -63 26 -129q0 -69 -26 -130q-25 -59 -71 -105t-106 -71q-63 -26 -129 -26q-69 0 -130 26q-59 25 -105 71t-71 105q-26 61 -26 130q0 66 26 129q25 60 71 106t105 71q61 26 130 26z" />
<glyph unicode="&#xa2;" d="M1854 524q-88 -64 -228 -102t-288 -48v-374h-184v374q-259 11 -443 81q-185 71 -304 197t-174 303q-55 175 -55 399q0 258 78 445t211 307t309 177t374 57h4v342h184v-350q146 -12 251 -26q120 -16 223 -36v-556h-144l-108 330q-52 34 -102 54t-120 30v-1508q76 0 140 4 q73 5 140 12q51 6 129 19q53 9 107 23v-154zM760 1366q0 -147 19 -265q20 -122 64 -215q45 -94 121 -157q78 -64 190 -89v1486q-81 -17 -149 -68q-72 -54 -125 -145q-54 -93 -87 -229t-33 -318z" />
<glyph unicode="&#xa3;" d="M1920 446v-446h-1746v246l142 124q75 63 139 138q62 72 105 160q42 86 42 192q0 90 -33 183q-36 101 -79 197h-326v202h176q-56 128 -95 266q-39 140 -39 304q0 336 237 518q238 182 709 182q97 0 171 -7q77 -7 152 -18q71 -10 146 -27l153 -34v-610h-174l-86 388 q-65 40 -157 73q-91 33 -205 33q-182 0 -270 -126q-88 -125 -88 -372q0 -188 16 -319q17 -137 36 -251h502v-202h-476q14 -86 20 -147q8 -75 8 -159q0 -168 -54 -284q-55 -117 -126 -206z" />
<glyph unicode="&#xa4;" d="M1470 704q-98 -69 -209 -103q-114 -35 -237 -35q-127 0 -238 37q-114 38 -208 101l-210 -208l-200 204l204 206q-65 96 -99 208q-35 114 -35 238t35 238q34 112 99 208l-204 210l208 208l202 -214q96 65 208 102q114 38 238 38q123 0 237 -38q113 -38 209 -102l210 210 l204 -200l-208 -214q62 -93 101 -209q37 -111 37 -237q0 -127 -37 -238q-38 -114 -101 -208l208 -206l-200 -204zM1024 1864q-105 0 -197 -40q-95 -41 -162 -110q-68 -70 -109 -163q-40 -92 -40 -199q0 -105 40 -197q41 -94 109 -162t162 -109q92 -40 197 -40q107 0 199 40 q93 41 163 109q69 67 110 162q40 92 40 197q0 107 -40 199q-41 94 -110 163t-163 110q-92 40 -199 40z" />
<glyph unicode="&#xa5;" d="M4 2550v132h998v-132l-224 -52l412 -1080l424 1084l-220 48v132h650v-132l-172 -40l-514 -1232h452v-204h-488v-276h488v-204h-488v-414l286 -48v-132h-1148v132l284 48v414h-514v204h514v276h-514v204h466l-524 1224z" />
<glyph unicode="&#xa6;" horiz-adv-x="902" d="M308 1602v1240h284v-1240h-284zM308 -884v1244h284v-1244h-284z" />
<glyph unicode="&#xa7;" d="M1710 84q0 -132 -45 -241q-44 -108 -138 -188q-91 -78 -235 -122q-141 -43 -336 -43q-96 0 -194 12q-92 11 -182 29q-69 13 -147 34q-64 17 -89 27v522h132l76 -264q27 -27 74 -61q39 -28 98 -56q48 -23 116 -41q60 -16 128 -16q162 0 250 75t88 191q0 94 -45 164 t-118 127q-74 57 -167 106l-193 101q-101 53 -193 112q-91 58 -167 140q-72 78 -118 184q-45 104 -45 244q0 103 32 193q32 89 90 158q59 70 138 119t176 78q-77 42 -139 90q-64 49 -114 116q-48 64 -77 151q-28 84 -28 195q0 136 53 240t145 175t216 108q123 37 266 37 q140 0 281 -18q153 -19 273 -40v-482h-132l-64 220q-27 27 -66 50q-42 25 -89 42q-53 19 -103 29q-57 11 -104 11q-143 0 -213 -59q-69 -59 -69 -161q0 -92 45 -157t120 -114q76 -50 169 -90l193 -85q93 -41 194 -97q93 -52 170 -127q75 -73 120 -176q45 -102 45 -242 q0 -103 -28 -196q-28 -94 -84 -171t-142 -136q-85 -58 -202 -93q82 -50 146 -106q69 -60 120 -131q52 -73 82 -163t30 -204zM1384 1142q0 83 -34 142q-35 61 -93 107q-59 47 -135 84q-72 35 -160 73q-62 -7 -120 -34q-55 -25 -98 -65q-42 -39 -66 -85t-24 -92q0 -79 35 -143 q33 -60 94 -115q56 -50 137 -97q86 -50 162 -89q68 12 122 43q56 31 96 75q38 40 62 94q22 48 22 102z" />
<glyph unicode="&#xa8;" horiz-adv-x="1364" d="M1020 2260q-49 0 -94 20q-44 20 -77 53q-32 32 -52 77q-19 42 -19 92q0 51 19 93q20 44 52 75q33 31 77 51q42 19 94 19t94 -19q45 -20 76 -51q32 -32 50 -75t18 -93q0 -48 -18 -92q-18 -43 -50 -77q-32 -33 -76 -53q-45 -20 -94 -20zM348 2260q-47 0 -92 20 q-44 20 -77 53t-53 77q-20 45 -20 92q0 48 20 93q19 43 53 75q33 31 77 51q42 19 92 19q51 0 93 -19q43 -19 75 -51t51 -75q19 -42 19 -93q0 -48 -18 -92q-18 -43 -50 -77q-32 -33 -76 -53q-45 -20 -94 -20z" />
<glyph unicode="&#xa9;" horiz-adv-x="3060" d="M176 1340q0 194 49 369q50 178 139 331q89 152 215 280q125 126 279 216q153 89 330 139q174 49 368 49t369 -49q178 -50 331 -139t280 -216t216 -280t139 -331q49 -175 49 -369t-49 -368q-50 -177 -139 -330q-90 -154 -216 -279q-128 -126 -280 -215q-153 -89 -331 -139 q-175 -49 -369 -49q-288 0 -539 108t-438 295t-295 438t-108 539zM1626 508q-198 0 -356 57t-268 164q-111 108 -169 258q-59 153 -59 341q0 214 59 376q58 159 170 265q110 104 269 157q156 52 358 52q168 0 295 -19q152 -23 241 -41l8 -414h-138l-38 210q-87 52 -164 76 q-84 26 -196 26q-134 0 -224 -37q-92 -38 -150 -118q-58 -81 -84 -212q-26 -133 -26 -317q0 -330 107 -497t365 -167q152 0 239 34q90 35 151 84l44 238h140l-8 -438q-54 -17 -116 -30q-80 -17 -138 -25q-81 -12 -153 -17q-79 -6 -159 -6zM1556 2556q-250 0 -469 -96 t-381 -261q-161 -164 -256 -386q-94 -219 -94 -473t94 -473q95 -222 256 -386q163 -166 381 -260q220 -95 469 -95q246 0 468 95q218 93 383 260q163 165 258 386q95 222 95 473q0 170 -43 323q-44 158 -122 291q-81 139 -188 246q-112 112 -243 190q-134 80 -288 123 q-153 43 -320 43z" />
<glyph unicode="&#xaa;" horiz-adv-x="1228" d="M646 2724q93 0 171 -22t137 -66q57 -43 91 -110q33 -66 33 -154v-672l112 -30v-98h-428l-14 86q-14 -14 -43 -35q-24 -17 -66 -35q-36 -15 -90 -28q-51 -12 -115 -12q-107 0 -178 25q-73 26 -117 70t-64 107q-19 60 -19 134q0 116 47 187t125 110q79 40 177 53 q107 15 201 16l124 4v138q0 101 -55 150q-56 50 -139 50q-66 0 -109 -18q-30 -12 -95 -44l-46 -154h-98v306l107 16q67 10 108 14q55 6 114 9t129 3zM730 2128l-112 -4q-51 -1 -92 -12q-39 -10 -68 -36q-28 -25 -42 -71q-14 -47 -14 -115q0 -101 37 -139q37 -39 89 -39 q66 0 110 15q45 16 92 39v362z" />
<glyph unicode="&#xab;" d="M212 992l660 712h202l-366 -778l366 -778h-202l-660 712v132zM1032 992l660 712h200l-364 -778l364 -778h-200l-660 712v132z" />
<glyph unicode="&#xac;" horiz-adv-x="2334" d="M2110 1504v-1098h-284v810h-1622v288h1906z" />
<glyph unicode="&#xad;" horiz-adv-x="1364" d="M150 790v348h1064v-348h-1064z" />
<glyph unicode="&#xae;" horiz-adv-x="3060" d="M2940 1340q0 -194 -49 -368q-50 -177 -139 -330q-90 -154 -216 -279q-128 -126 -280 -215q-153 -89 -331 -139q-175 -49 -369 -49q-288 0 -539 108t-438 295t-295 438t-108 539q0 194 49 369q50 178 139 331q89 152 215 280q125 126 279 216q153 89 330 139 q174 49 368 49t369 -49q178 -50 331 -139t280 -216t216 -280t139 -331q49 -175 49 -369zM1934 552l-460 686h-98v-538l188 -32v-116h-692v116l152 32v1320l-168 32v110h700q167 0 287 -32q118 -31 196 -91q77 -59 113 -140t36 -179q0 -155 -91 -270q-93 -117 -267 -172 l414 -578l140 -32v-116h-450zM1822 1716q0 94 -26 154q-25 57 -77 89q-51 32 -127 42q-80 11 -178 11h-38v-624h46q208 0 304 72t96 256zM1556 2556q-250 0 -469 -96t-381 -261q-161 -164 -256 -386q-94 -219 -94 -473t94 -473q95 -222 256 -386q163 -166 381 -260 q220 -95 469 -95q246 0 468 95q218 93 383 260q163 165 258 386q95 222 95 473q0 170 -43 323q-44 158 -122 291q-81 139 -188 246q-112 112 -243 190q-134 80 -288 123q-153 43 -320 43z" />
<glyph unicode="&#xaf;" d="M2084 2784h-2118v298h2118v-298z" />
<glyph unicode="&#xb0;" horiz-adv-x="1638" d="M196 2102q0 128 48 242t132 198q83 83 197 133q111 49 243 49q129 0 242 -49q115 -50 198 -133t133 -198q49 -113 49 -242q0 -132 -49 -243q-50 -114 -133 -197q-84 -84 -198 -132t-242 -48q-130 0 -243 48t-197 132t-132 197t-48 243zM814 2500q-81 0 -150 -31 q-70 -31 -121 -85q-52 -55 -80 -127q-29 -75 -29 -159q0 -81 29 -154q28 -71 80 -126t121 -86q72 -32 150 -32q82 0 154 32q69 31 121 86t80 126q29 73 29 154q0 84 -29 159q-28 72 -80 127q-51 54 -121 85q-69 31 -154 31z" />
<glyph unicode="&#xb1;" horiz-adv-x="2248" d="M1266 1216v-810h-286v810h-808v288h808v810h286v-810h812v-288h-812zM2078 282v-282h-1906v282h1906z" />
<glyph unicode="&#xb2;" horiz-adv-x="1228" d="M1132 1072h-1020v226q164 177 272 282q115 113 198 220q81 106 121 216q41 114 41 270q0 70 -17 124q-16 52 -47 84q-30 32 -71 47t-87 15q-106 0 -180 -62l-52 -232h-124v386q90 21 187 37q91 15 199 15q265 0 407 -110q141 -110 141 -310q0 -95 -20 -173 q-19 -75 -59 -144q-37 -65 -99 -131q-58 -62 -140 -135l-180 -154l-220 -189h750v-282z" />
<glyph unicode="&#xb3;" horiz-adv-x="1228" d="M1142 1508q0 -219 -154 -340q-155 -122 -440 -122q-126 0 -236 13q-121 14 -208 35l-14 410h130l64 -264q35 -21 89 -37q51 -15 109 -15q158 0 228 88t70 244q0 87 -22 143q-23 58 -59 90q-38 33 -88 48q-49 14 -109 19l-128 8v166l124 8q108 8 158 74q50 67 50 210 q0 148 -60 208t-162 60q-53 0 -89 -16q-40 -18 -75 -40l-52 -238h-124v386q78 21 175 37q89 15 211 15q266 0 403 -98t137 -298q0 -153 -79 -257q-79 -105 -253 -133q208 -25 306 -125t98 -279z" />
<glyph unicode="&#xb4;" horiz-adv-x="1364" d="M290 2236v66l332 544h570v-74l-730 -536h-172z" />
<glyph unicode="&#xb5;" horiz-adv-x="2360" d="M1536 184q-40 -40 -86 -80q-48 -42 -101 -72q-60 -34 -119 -52q-66 -20 -142 -20q-100 0 -168 27q-67 27 -120 77q0 -70 -3 -184l-7 -244l-8 -264q-1 -24 -3.5 -113t-4.5 -131h-564v90q20 213 35 483q13 235 13 505v1492l-188 50v132h766v-1304q0 -183 76 -265 q77 -83 234 -83q60 0 116 14q55 14 101 36q51 25 87 50q41 29 76 58v1312l-172 50v132h750v-1700l184 -50v-130h-714z" />
<glyph unicode="&#xb6;" horiz-adv-x="2212" d="M1872 2490v-3006h-280v3006h-270v-3006h-280v1606q-173 6 -329 59q-155 53 -270 153q-114 99 -182 250q-67 149 -67 352q0 181 55 324q56 146 164 245q111 102 272 155q163 54 377 54h976v-146z" />
<glyph unicode="&#xb7;" horiz-adv-x="1024" d="M512 1022q-69 0 -130 26q-59 25 -105 71t-71 105q-26 61 -26 130q0 66 26 129q25 60 71 106t105 71q61 26 130 26q66 0 129 -26q60 -25 106 -71t71 -106q26 -63 26 -129q0 -69 -26 -130q-25 -59 -71 -105t-106 -71q-63 -26 -129 -26z" />
<glyph unicode="&#x2219;" horiz-adv-x="1024" d="M512 1022q-69 0 -130 26q-59 25 -105 71t-71 105q-26 61 -26 130q0 66 26 129q25 60 71 106t105 71q61 26 130 26q66 0 129 -26q60 -25 106 -71t71 -106q26 -63 26 -129q0 -69 -26 -130q-25 -59 -71 -105t-106 -71q-63 -26 -129 -26z" />
<glyph unicode="&#xb8;" horiz-adv-x="1364" d="M566 -844q-78 0 -164 16q-90 17 -156 46v180q64 -17 144 -28q73 -10 126 -10q102 0 143 50t41 122q0 88 -62 135q-61 46 -200 57l102 390h222l-46 -220q82 -12 150 -36q66 -24 117 -65q49 -40 76 -99q27 -58 27 -136q0 -101 -40 -175q-42 -77 -110 -125q-73 -51 -165 -76 q-96 -26 -205 -26z" />
<glyph unicode="&#xb9;" horiz-adv-x="1228" d="M786 1232l280 -28v-134h-914v134l278 28v1154l-278 -92v132l454 268h180v-1462z" />
<glyph unicode="&#xba;" horiz-adv-x="1352" d="M1236 2134q0 -288 -141 -441t-427 -153q-270 0 -412 151t-142 443q0 289 142 438q142 150 420 150q270 0 415 -148t145 -440zM884 2134q0 234 -54 340t-160 106t-155 -106q-49 -105 -49 -340q0 -237 49 -345q49 -109 155 -109q109 0 161 109q53 111 53 345z" />
<glyph unicode="&#xbb;" d="M1836 860l-660 -712h-202l366 778l-366 778h202l660 -712v-132zM1016 860l-660 -712h-200l364 778l-364 778h200l660 -712v-132z" />
<glyph unicode="&#xbc;" horiz-adv-x="3072" d="M772 0h-246l1930 2682h240zM806 1232l280 -28v-134h-914v134l278 28v1154l-278 -92v132l454 268h180v-1462zM2636 314v-318h-336v318h-654v196l722 1104h268v-1054h160v-246h-160zM2300 1226h-6l-430 -666h436v666z" />
<glyph unicode="&#xbd;" horiz-adv-x="3072" d="M778 0h-246l1930 2682h240zM792 1232l280 -28v-134h-914v134l278 28v1154l-278 -92v132l454 268h180v-1462zM2914 4h-1020v226q164 177 272 282q115 113 198 220q81 106 121 216q41 114 41 270q0 70 -17 124q-16 52 -47 84q-30 32 -71 47t-87 15q-106 0 -180 -62 l-52 -232h-124v386q90 21 187 37q91 15 199 15q265 0 407 -110q141 -110 141 -310q0 -95 -20 -173q-19 -75 -59 -144q-37 -65 -99 -131q-58 -62 -140 -135l-180 -154l-220 -189h750v-282z" />
<glyph unicode="&#xbe;" horiz-adv-x="3072" d="M772 0h-246l1930 2682h240zM1244 1508q0 -219 -154 -340q-155 -122 -440 -122q-126 0 -236 13q-121 14 -208 35l-14 410h130l64 -264q35 -21 89 -37q51 -15 109 -15q158 0 228 88t70 244q0 87 -22 143q-23 58 -59 90q-38 33 -88 48q-49 14 -109 19l-128 8v166l124 8 q108 8 158 74q50 67 50 210q0 148 -60 208t-162 60q-53 0 -89 -16q-40 -18 -75 -40l-52 -238h-124v386q78 21 175 37q89 15 211 15q266 0 403 -98t137 -298q0 -153 -79 -257q-79 -105 -253 -133q208 -25 306 -125t98 -279zM2678 314v-318h-336v318h-654v196l722 1104h268 v-1054h160v-246h-160zM2342 1226h-6l-430 -666h436v666z" />
<glyph unicode="&#xbf;" d="M1162 1922q68 0 131 -26q61 -25 105 -71q44 -45 69 -106q25 -60 25 -129q0 -71 -25 -130q-25 -60 -69 -105q-44 -46 -105 -71q-63 -26 -131 -26q-69 0 -130 26q-59 25 -105 71t-71 105q-26 61 -26 130q0 66 26 129q25 60 71 106t105 71q61 26 130 26zM1070 1084h206 l114 -626l-190 -50q-74 -19 -144 -53q-68 -33 -119 -93t-81 -153t-30 -233q0 -142 24 -240t75 -161q50 -62 129 -91q77 -28 188 -28q96 0 169 24t129 60l86 388h178v-590q-154 -40 -309 -63q-158 -23 -339 -23q-450 0 -679 177t-229 533q0 134 36 256q36 120 110 222 q73 100 186 175t262 117l174 48z" />
<glyph unicode="&#xc0;" horiz-adv-x="2958" d="M856 146v-146h-816v146l200 54l954 2504h580l950 -2504l204 -54v-146h-1194v146l310 54l-256 694h-1030l-246 -694zM1282 2300l-442 -1186h872zM1630 2904l-728 536v74h570l330 -546v-64h-172z" />
<glyph unicode="&#xc1;" horiz-adv-x="2958" d="M856 146v-146h-816v146l200 54l954 2504h580l950 -2504l204 -54v-146h-1194v146l310 54l-256 694h-1030l-246 -694zM1282 2300l-442 -1186h872zM1204 2904v66l332 544h570v-74l-730 -536h-172z" />
<glyph unicode="&#xc2;" horiz-adv-x="2958" d="M856 146v-146h-816v146l200 54l954 2504h580l950 -2504l204 -54v-146h-1194v146l310 54l-256 694h-1030l-246 -694zM1282 2300l-442 -1186h872zM832 2904v66l436 586h426l434 -586v-66h-152l-496 324l-496 -324h-152z" />
<glyph unicode="&#xc3;" horiz-adv-x="2958" d="M856 146v-146h-816v146l200 54l954 2504h580l950 -2504l204 -54v-146h-1194v146l310 54l-256 694h-1030l-246 -694zM1282 2300l-442 -1186h872zM1708 2908q-54 0 -99 13q-53 15 -90 32q-48 21 -81 44l-74 49l-50 38q-32 25 -59 42q-39 24 -62 34q-33 14 -59 14 q-38 0 -61 -12q-24 -13 -37 -40q-14 -30 -23 -72q-10 -48 -17 -106h-210q8 112 30 216q23 105 70 183q48 79 127 127t203 48q107 0 190 -43q82 -43 154 -93l51 -37q33 -24 60 -41q39 -24 62 -34q33 -14 57 -14q36 0 59 12t38 39q16 29 23 70l18 103h210q-7 -111 -30 -215 q-23 -105 -70 -183q-49 -81 -128 -127q-80 -47 -202 -47z" />
<glyph unicode="&#xc4;" horiz-adv-x="2958" d="M856 146v-146h-816v146l200 54l954 2504h580l950 -2504l204 -54v-146h-1194v146l310 54l-256 694h-1030l-246 -694zM1282 2300l-442 -1186h872zM1810 2928q-49 0 -94 20q-44 20 -77 53q-32 32 -52 77q-19 42 -19 92q0 51 19 93q20 44 52 75q33 31 77 51q42 19 94 19 t94 -19q45 -20 76 -51q32 -32 50 -75t18 -93q0 -48 -18 -92q-18 -43 -50 -77q-32 -33 -76 -53q-45 -20 -94 -20zM1138 2928q-47 0 -92 20q-44 20 -77 53t-53 77q-20 45 -20 92q0 48 20 93q19 43 53 75q33 31 77 51q42 19 92 19q51 0 93 -19q43 -19 75 -51t51 -75 q19 -42 19 -93q0 -48 -18 -92q-18 -43 -50 -77q-32 -33 -76 -53q-45 -20 -94 -20z" />
<glyph unicode="&#xc5;" horiz-adv-x="2958" d="M856 146v-146h-816v146l200 54l954 2504h580l950 -2504l204 -54v-146h-1194v146l310 54l-256 694h-1030l-246 -694zM1282 2300l-442 -1186h872zM1464 2544q-92 0 -167 34q-79 36 -134 92q-58 59 -89 135q-32 78 -32 165t32 165q32 77 89 134t134 90t167 33t167 -33 t134 -90t89 -134q32 -78 32 -165t-32 -165q-31 -76 -89 -135q-55 -56 -134 -92q-75 -34 -167 -34zM1464 3168q-42 0 -75 -16q-36 -17 -62 -43t-43 -63q-16 -35 -16 -76q0 -42 16 -75q17 -36 43 -62t62 -43q33 -16 75 -16t75 16q36 17 62 43t43 62q16 33 16 75q0 41 -16 76 q-17 37 -43 63t-62 43q-33 16 -75 16z" />
<glyph unicode="&#xc6;" horiz-adv-x="4096" d="M1654 2504l-286 36v142h2348v-682h-182l-64 434q-81 9 -136 14q-72 6 -144 9q-44 2 -137 4q-43 1 -111 1h-400v-984h566l62 296h178v-824h-178l-62 304h-566v-1034h490q124 0 215 3q105 3 157 7q74 5 110 10q45 6 74 12l114 496h182l-38 -748h-2278v146l344 54v694h-922 l-410 -694l304 -54v-146h-856v146l244 54zM1912 1114v1358l-792 -1358h792z" />
<glyph unicode="&#xc7;" horiz-adv-x="2958" d="M1630 -40q-336 0 -603 92q-263 91 -449 266q-183 172 -281 425q-97 249 -97 567q0 361 97 624q98 265 280 437q184 173 448 257q265 84 603 84q283 0 529 -41q244 -41 437 -93l12 -644h-180l-56 388q-128 87 -284 133q-159 47 -330 47q-211 0 -376 -61t-281 -201 q-115 -139 -175 -366q-60 -226 -60 -558q0 -292 60 -508t172 -358q113 -143 275 -213q165 -71 369 -71q226 0 395 60q170 60 265 142l64 440h182l-12 -680q-81 -33 -203 -64q-124 -32 -250 -53q-148 -25 -275 -37q-148 -14 -276 -14zM1480 -844q-78 0 -164 16 q-90 17 -156 46v180q64 -17 144 -28q73 -10 126 -10q102 0 143 50t41 122q0 88 -62 135q-61 46 -200 57l102 390h222l-46 -220q82 -12 150 -36q66 -24 117 -65q49 -40 76 -99q27 -58 27 -136q0 -101 -40 -175q-42 -77 -110 -125q-73 -51 -165 -76q-96 -26 -205 -26z" />
<glyph unicode="&#xc8;" horiz-adv-x="2732" d="M70 146l344 54v2284l-344 52v146h2284v-682h-182l-64 434q-76 9 -155 14q-92 6 -185 9q-59 2 -178 4q-56 1 -130 1h-416v-984h702l62 296h178v-824h-178l-62 304h-702v-1034h506q124 0 234 3q131 4 198 7q99 5 151 10q63 6 93 12l114 496h182l-38 -748h-2414v146z M1588 2904l-728 536v74h570l330 -546v-64h-172z" />
<glyph unicode="&#xc9;" horiz-adv-x="2732" d="M70 146l344 54v2284l-344 52v146h2284v-682h-182l-64 434q-76 9 -155 14q-92 6 -185 9q-59 2 -178 4q-56 1 -130 1h-416v-984h702l62 296h178v-824h-178l-62 304h-702v-1034h506q124 0 234 3q131 4 198 7q99 5 151 10q63 6 93 12l114 496h182l-38 -748h-2414v146z M1076 2904v66l332 544h570v-74l-730 -536h-172z" />
<glyph unicode="&#xca;" horiz-adv-x="2732" d="M70 146l344 54v2284l-344 52v146h2284v-682h-182l-64 434q-76 9 -155 14q-92 6 -185 9q-59 2 -178 4q-56 1 -130 1h-416v-984h702l62 296h178v-824h-178l-62 304h-702v-1034h506q124 0 234 3q131 4 198 7q99 5 151 10q63 6 93 12l114 496h182l-38 -748h-2414v146z M716 2904v66l436 586h426l434 -586v-66h-152l-496 324l-496 -324h-152z" />
<glyph unicode="&#xcb;" horiz-adv-x="2732" d="M70 146l344 54v2284l-344 52v146h2284v-682h-182l-64 434q-76 9 -155 14q-92 6 -185 9q-59 2 -178 4q-56 1 -130 1h-416v-984h702l62 296h178v-824h-178l-62 304h-702v-1034h506q124 0 234 3q131 4 198 7q99 5 151 10q63 6 93 12l114 496h182l-38 -748h-2414v146z M1704 2928q-49 0 -94 20q-44 20 -77 53q-32 32 -52 77q-19 42 -19 92q0 51 19 93q20 44 52 75q33 31 77 51q42 19 94 19t94 -19q45 -20 76 -51q32 -32 50 -75t18 -93q0 -48 -18 -92q-18 -43 -50 -77q-32 -33 -76 -53q-45 -20 -94 -20zM1032 2928q-47 0 -92 20q-44 20 -77 53 t-53 77q-20 45 -20 92q0 48 20 93q19 43 53 75q33 31 77 51q42 19 92 19q51 0 93 -19q43 -19 75 -51t51 -75q19 -42 19 -93q0 -48 -18 -92q-18 -43 -50 -77q-32 -33 -76 -53q-45 -20 -94 -20z" />
<glyph unicode="&#xcc;" horiz-adv-x="1594" d="M1112 200l344 -52v-148h-1318v148l344 52v2282l-344 54v146h1318v-146l-344 -54v-2282zM1006 2904l-728 536v74h570l330 -546v-64h-172z" />
<glyph unicode="&#xcd;" horiz-adv-x="1594" d="M1112 200l344 -52v-148h-1318v148l344 52v2282l-344 54v146h1318v-146l-344 -54v-2282zM476 2904v66l332 544h570v-74l-730 -536h-172z" />
<glyph unicode="&#xce;" horiz-adv-x="1594" d="M1112 200l344 -52v-148h-1318v148l344 52v2282l-344 54v146h1318v-146l-344 -54v-2282zM142 2904v66l436 586h426l434 -586v-66h-152l-496 324l-496 -324h-152z" />
<glyph unicode="&#xcf;" horiz-adv-x="1594" d="M1112 200l344 -52v-148h-1318v148l344 52v2282l-344 54v146h1318v-146l-344 -54v-2282zM1130 2928q-49 0 -94 20q-44 20 -77 53q-32 32 -52 77q-19 42 -19 92q0 51 19 93q20 44 52 75q33 31 77 51q42 19 94 19t94 -19q45 -20 76 -51q32 -32 50 -75t18 -93q0 -48 -18 -92 q-18 -43 -50 -77q-32 -33 -76 -53q-45 -20 -94 -20zM458 2928q-47 0 -92 20q-44 20 -77 53t-53 77q-20 45 -20 92q0 48 20 93q19 43 53 75q33 31 77 51q42 19 92 19q51 0 93 -19q43 -19 75 -51t51 -75q19 -42 19 -93q0 -48 -18 -92q-18 -43 -50 -77q-32 -33 -76 -53 q-45 -20 -94 -20z" />
<glyph unicode="&#xd0;" horiz-adv-x="2958" d="M1390 2682q324 0 585 -69q260 -69 445 -225q184 -156 283 -409t99 -623q0 -330 -76 -582q-77 -255 -238 -428q-162 -174 -413 -264t-601 -90q-156 0 -240 1l-246 3q-124 2 -227 3q-71 1 -185 1h-416v146l300 54v1018h-358v244h358v1022l-344 52v146h1274zM2138 1340 q0 313 -59 529q-58 214 -173 347q-114 132 -282 189t-388 57h-148v-1000h512v-244h-512v-990q48 -4 87 -6q26 -1 78 -5q28 -2 82 -4q29 -1 101 -1q199 0 334 65q133 64 216 203q82 138 117 351q35 216 35 509z" />
<glyph unicode="&#xd1;" horiz-adv-x="2958" d="M2310 2484l-360 52v146h954v-146l-344 -52v-2484h-234l-1654 2156v-1956l360 -54v-146h-954v146l344 54v2284l-344 52v146h918l1314 -1714v1516zM1748 2908q-54 0 -99 13q-53 15 -90 32q-48 21 -81 44l-74 49l-50 38q-32 25 -59 42q-39 24 -62 34q-33 14 -59 14 q-38 0 -61 -12q-24 -13 -37 -40q-14 -30 -23 -72q-10 -48 -17 -106h-210q8 112 30 216q23 105 70 183q48 79 127 127t203 48q107 0 190 -43q82 -43 154 -93l51 -37q33 -24 60 -41q39 -24 62 -34q33 -14 57 -14q36 0 59 12t38 39q16 29 23 70l18 103h210q-7 -111 -30 -215 q-23 -105 -70 -183q-49 -81 -128 -127q-80 -47 -202 -47z" />
<glyph unicode="&#xd2;" horiz-adv-x="3186" d="M864 1344q0 -283 34 -500q35 -222 118 -372q85 -153 225 -232q142 -80 353 -80q212 0 352 80q139 79 224 232q83 150 118 372q34 217 34 500q0 282 -34 496q-35 219 -118 366t-224 226q-140 78 -352 78t-353 -78t-225 -226q-83 -147 -118 -366q-34 -214 -34 -496z M200 1344q0 355 92 614q92 258 270 426q180 169 437 248q261 80 595 80q322 0 582 -80q257 -79 438 -248q180 -168 276 -426t96 -614t-96 -617q-96 -262 -276 -431q-182 -171 -438 -253q-260 -83 -582 -83t-582 83q-256 82 -439 253q-180 169 -277 431q-96 261 -96 617z M1710 2904l-728 536v74h570l330 -546v-64h-172z" />
<glyph unicode="&#xd3;" horiz-adv-x="3186" d="M864 1344q0 -283 34 -500q35 -222 118 -372q85 -153 225 -232q142 -80 353 -80q212 0 352 80q139 79 224 232q83 150 118 372q34 217 34 500q0 282 -34 496q-35 219 -118 366t-224 226q-140 78 -352 78t-353 -78t-225 -226q-83 -147 -118 -366q-34 -214 -34 -496z M200 1344q0 355 92 614q92 258 270 426q180 169 437 248q261 80 595 80q322 0 582 -80q257 -79 438 -248q180 -168 276 -426t96 -614t-96 -617q-96 -262 -276 -431q-182 -171 -438 -253q-260 -83 -582 -83t-582 83q-256 82 -439 253q-180 169 -277 431q-96 261 -96 617z M1390 2904v66l332 544h570v-74l-730 -536h-172z" />
<glyph unicode="&#xd4;" horiz-adv-x="3186" d="M864 1344q0 -283 34 -500q35 -222 118 -372q85 -153 225 -232q142 -80 353 -80q212 0 352 80q139 79 224 232q83 150 118 372q34 217 34 500q0 282 -34 496q-35 219 -118 366t-224 226q-140 78 -352 78t-353 -78t-225 -226q-83 -147 -118 -366q-34 -214 -34 -496z M200 1344q0 355 92 614q92 258 270 426q180 169 437 248q261 80 595 80q322 0 582 -80q257 -79 438 -248q180 -168 276 -426t96 -614t-96 -617q-96 -262 -276 -431q-182 -171 -438 -253q-260 -83 -582 -83t-582 83q-256 82 -439 253q-180 169 -277 431q-96 261 -96 617z M946 2904v66l436 586h426l434 -586v-66h-152l-496 324l-496 -324h-152z" />
<glyph unicode="&#xd5;" horiz-adv-x="3186" d="M864 1344q0 -283 34 -500q35 -222 118 -372q85 -153 225 -232q142 -80 353 -80q212 0 352 80q139 79 224 232q83 150 118 372q34 217 34 500q0 282 -34 496q-35 219 -118 366t-224 226q-140 78 -352 78t-353 -78t-225 -226q-83 -147 -118 -366q-34 -214 -34 -496z M200 1344q0 355 92 614q92 258 270 426q180 169 437 248q261 80 595 80q322 0 582 -80q257 -79 438 -248q180 -168 276 -426t96 -614t-96 -617q-96 -262 -276 -431q-182 -171 -438 -253q-260 -83 -582 -83t-582 83q-256 82 -439 253q-180 169 -277 431q-96 261 -96 617z M1836 2908q-54 0 -99 13q-53 15 -90 32q-48 21 -81 44l-74 49l-50 38q-32 25 -59 42q-39 24 -62 34q-33 14 -59 14q-38 0 -61 -12q-24 -13 -37 -40q-14 -30 -23 -72q-10 -48 -17 -106h-210q8 112 30 216q23 105 70 183q48 79 127 127t203 48q107 0 190 -43q82 -43 154 -93 l51 -37q33 -24 60 -41q39 -24 62 -34q33 -14 57 -14q36 0 59 12t38 39q16 29 23 70l18 103h210q-7 -111 -30 -215q-23 -105 -70 -183q-49 -81 -128 -127q-80 -47 -202 -47z" />
<glyph unicode="&#xd6;" horiz-adv-x="3186" d="M864 1344q0 -283 34 -500q35 -222 118 -372q85 -153 225 -232q142 -80 353 -80q212 0 352 80q139 79 224 232q83 150 118 372q34 217 34 500q0 282 -34 496q-35 219 -118 366t-224 226q-140 78 -352 78t-353 -78t-225 -226q-83 -147 -118 -366q-34 -214 -34 -496z M200 1344q0 355 92 614q92 258 270 426q180 169 437 248q261 80 595 80q322 0 582 -80q257 -79 438 -248q180 -168 276 -426t96 -614t-96 -617q-96 -262 -276 -431q-182 -171 -438 -253q-260 -83 -582 -83t-582 83q-256 82 -439 253q-180 169 -277 431q-96 261 -96 617z M1942 2928q-49 0 -94 20q-44 20 -77 53q-32 32 -52 77q-19 42 -19 92q0 51 19 93q20 44 52 75q33 31 77 51q42 19 94 19t94 -19q45 -20 76 -51q32 -32 50 -75t18 -93q0 -48 -18 -92q-18 -43 -50 -77q-32 -33 -76 -53q-45 -20 -94 -20zM1270 2928q-47 0 -92 20q-44 20 -77 53 t-53 77q-20 45 -20 92q0 48 20 93q19 43 53 75q33 31 77 51q42 19 92 19q51 0 93 -19q43 -19 75 -51t51 -75q19 -42 19 -93q0 -48 -18 -92q-18 -43 -50 -77q-32 -33 -76 -53q-45 -20 -94 -20z" />
<glyph unicode="&#xd7;" horiz-adv-x="2334" d="M1156 1156l-650 -648l-202 204l648 652l-648 644l208 208l644 -648l652 648l202 -204l-648 -648l648 -652l-202 -204z" />
<glyph unicode="&#xd8;" horiz-adv-x="3186" d="M582 288q-186 170 -284 431q-98 262 -98 625q0 355 92 614q92 258 270 426q180 169 437 248q261 80 595 80q247 0 458 -47q205 -46 374 -143l216 260h290l-324 -394q183 -167 281 -426q97 -257 97 -618q0 -356 -96 -617q-96 -262 -276 -431q-182 -171 -438 -253 q-260 -83 -582 -83q-246 0 -454 47q-205 46 -374 143l-214 -260h-298zM864 1344q0 -182 14 -347q14 -159 48 -291l1242 1502q-84 149 -223 225q-140 77 -351 77q-212 0 -353 -78t-225 -226q-83 -147 -118 -366q-34 -214 -34 -496zM2322 1344q0 176 -14 338q-14 157 -48 284 l-1238 -1504q84 -149 223 -225q140 -77 349 -77q212 0 352 80q139 79 224 232q83 150 118 372q34 217 34 500z" />
<glyph unicode="&#xd9;" horiz-adv-x="2958" d="M1676 244q166 0 283 49q121 50 196 136q77 88 113 209q36 122 36 268v1578l-360 52v146h912v-146l-304 -52v-1562q0 -179 -49 -350q-50 -173 -167 -308q-118 -136 -318 -219q-201 -83 -500 -83q-281 0 -488 67q-208 67 -347 193t-208 307t-69 409v1546l-304 52v146h1278 v-146l-344 -52v-1574q0 -150 38 -275q37 -122 116 -210t199 -134q123 -47 287 -47zM1698 2904l-728 536v74h570l330 -546v-64h-172z" />
<glyph unicode="&#xda;" horiz-adv-x="2958" d="M1676 244q166 0 283 49q121 50 196 136q77 88 113 209q36 122 36 268v1578l-360 52v146h912v-146l-304 -52v-1562q0 -179 -49 -350q-50 -173 -167 -308q-118 -136 -318 -219q-201 -83 -500 -83q-281 0 -488 67q-208 67 -347 193t-208 307t-69 409v1546l-304 52v146h1278 v-146l-344 -52v-1574q0 -150 38 -275q37 -122 116 -210t199 -134q123 -47 287 -47zM1412 2904v66l332 544h570v-74l-730 -536h-172z" />
<glyph unicode="&#xdb;" horiz-adv-x="2958" d="M1676 244q166 0 283 49q121 50 196 136q77 88 113 209q36 122 36 268v1578l-360 52v146h912v-146l-304 -52v-1562q0 -179 -49 -350q-50 -173 -167 -308q-118 -136 -318 -219q-201 -83 -500 -83q-281 0 -488 67q-208 67 -347 193t-208 307t-69 409v1546l-304 52v146h1278 v-146l-344 -52v-1574q0 -150 38 -275q37 -122 116 -210t199 -134q123 -47 287 -47zM956 2904v66l436 586h426l434 -586v-66h-152l-496 324l-496 -324h-152z" />
<glyph unicode="&#xdc;" horiz-adv-x="2958" d="M1676 244q166 0 283 49q121 50 196 136q77 88 113 209q36 122 36 268v1578l-360 52v146h912v-146l-304 -52v-1562q0 -179 -49 -350q-50 -173 -167 -308q-118 -136 -318 -219q-201 -83 -500 -83q-281 0 -488 67q-208 67 -347 193t-208 307t-69 409v1546l-304 52v146h1278 v-146l-344 -52v-1574q0 -150 38 -275q37 -122 116 -210t199 -134q123 -47 287 -47zM1930 2928q-49 0 -94 20q-44 20 -77 53q-32 32 -52 77q-19 42 -19 92q0 51 19 93q20 44 52 75q33 31 77 51q42 19 94 19t94 -19q45 -20 76 -51q32 -32 50 -75t18 -93q0 -48 -18 -92 q-18 -43 -50 -77q-32 -33 -76 -53q-45 -20 -94 -20zM1258 2928q-47 0 -92 20q-44 20 -77 53t-53 77q-20 45 -20 92q0 48 20 93q19 43 53 75q33 31 77 51q42 19 92 19q51 0 93 -19q43 -19 75 -51t51 -75q19 -42 19 -93q0 -48 -18 -92q-18 -43 -50 -77q-32 -33 -76 -53 q-45 -20 -94 -20z" />
<glyph unicode="&#xdd;" horiz-adv-x="2958" d="M1822 1056v-856l426 -54v-146h-1484v146l426 54v844l-816 1440l-302 52v146h1380v-146l-360 -52l612 -1124l592 1124l-328 52v146h912v-146l-284 -52zM1286 2904v66l332 544h570v-74l-730 -536h-172z" />
<glyph unicode="&#xde;" horiz-adv-x="2502" d="M1060 200l344 -52v-148h-1318v148l344 52v2282l-344 54v146h1318v-146l-344 -54v-316h112q338 0 555 -61q219 -61 348 -168q129 -106 180 -251q51 -144 51 -310t-43 -316q-44 -154 -154 -268q-111 -116 -301 -186q-189 -70 -482 -70h-266v-336zM1662 1372q0 162 -28 270 q-29 110 -91 177q-63 67 -166 97t-253 30h-64v-1190h72q152 0 253 39t163 116q63 78 88 192q26 118 26 269z" />
<glyph unicode="&#xdf;" horiz-adv-x="2278" d="M1074 1570q0 102 27 185q28 85 73 149q48 69 107 113q63 47 131 75q-12 300 -82 444q-71 146 -226 146q-88 0 -142 -48t-84 -146q-29 -95 -40 -244q-10 -139 -10 -340v-1904h-742v132l164 48v1724q0 240 49 421q50 183 154 307q103 123 269 188q162 64 394 64 q430 0 646 -231t228 -683q-95 0 -169 -16q-77 -16 -132 -51q-53 -33 -86 -89q-31 -53 -31 -132q0 -95 34 -173q35 -80 91 -151q55 -69 129 -145l148 -155q31 -33 77 -94q35 -46 65 -111q27 -57 44 -135q16 -71 16 -164q0 -132 -45 -241q-44 -107 -134 -188 q-87 -78 -219 -122q-129 -43 -298 -43q-75 0 -155 8q-70 7 -140 20q-62 12 -115 26q-45 12 -78 28v496h132l76 -284q48 -60 107 -86q52 -23 114 -23q10 0 21 1q49 1 91 25q41 23 71 62q31 40 47 90q17 53 17 109q0 103 -40 179q-42 79 -100 146q-57 66 -132 139 q-70 69 -136 156q-27 34 -67 94q-34 51 -59 111q-28 68 -43 137q-17 79 -17 176z" />
<glyph unicode="&#xe0;" d="M1092 1922q151 0 284 -26q129 -25 224 -87q94 -61 146 -161t52 -246v-1222l188 -48v-132h-692l-44 144l-89 -58q-51 -32 -117 -60q-61 -27 -148 -47q-80 -19 -182 -19q-164 0 -275 42q-112 42 -179 117q-68 76 -98 178q-30 103 -30 223q0 194 68 310t183 179 q117 64 268 83q153 20 325 24l244 6v274q0 165 -68 253q-68 87 -210 87q-111 0 -201 -31q-93 -32 -175 -73l-76 -234h-132v454l175 26q55 8 169 22q76 9 181 16q95 6 209 6zM1220 944l-168 -6q-87 -4 -152 -24q-62 -19 -107 -67q-43 -46 -64 -123q-21 -76 -21 -192 q0 -170 60 -250t156 -80t164 21q71 22 132 49v672zM1244 2236l-728 536v74h570l330 -546v-64h-172z" />
<glyph unicode="&#xe1;" d="M1092 1922q151 0 284 -26q129 -25 224 -87q94 -61 146 -161t52 -246v-1222l188 -48v-132h-692l-44 144l-89 -58q-51 -32 -117 -60q-61 -27 -148 -47q-80 -19 -182 -19q-164 0 -275 42q-112 42 -179 117q-68 76 -98 178q-30 103 -30 223q0 194 68 310t183 179 q117 64 268 83q153 20 325 24l244 6v274q0 165 -68 253q-68 87 -210 87q-111 0 -201 -31q-93 -32 -175 -73l-76 -234h-132v454l175 26q55 8 169 22q76 9 181 16q95 6 209 6zM1220 944l-168 -6q-87 -4 -152 -24q-62 -19 -107 -67q-43 -46 -64 -123q-21 -76 -21 -192 q0 -170 60 -250t156 -80t164 21q71 22 132 49v672zM726 2236v66l332 544h570v-74l-730 -536h-172z" />
<glyph unicode="&#xe2;" d="M1092 1922q151 0 284 -26q129 -25 224 -87q94 -61 146 -161t52 -246v-1222l188 -48v-132h-692l-44 144l-89 -58q-51 -32 -117 -60q-61 -27 -148 -47q-80 -19 -182 -19q-164 0 -275 42q-112 42 -179 117q-68 76 -98 178q-30 103 -30 223q0 194 68 310t183 179 q117 64 268 83q153 20 325 24l244 6v274q0 165 -68 253q-68 87 -210 87q-111 0 -201 -31q-93 -32 -175 -73l-76 -234h-132v454l175 26q55 8 169 22q76 9 181 16q95 6 209 6zM1220 944l-168 -6q-87 -4 -152 -24q-62 -19 -107 -67q-43 -46 -64 -123q-21 -76 -21 -192 q0 -170 60 -250t156 -80t164 21q71 22 132 49v672zM372 2236v66l436 586h426l434 -586v-66h-152l-496 324l-496 -324h-152z" />
<glyph unicode="&#xe3;" d="M1092 1922q151 0 284 -26q129 -25 224 -87q94 -61 146 -161t52 -246v-1222l188 -48v-132h-692l-44 144l-89 -58q-51 -32 -117 -60q-61 -27 -148 -47q-80 -19 -182 -19q-164 0 -275 42q-112 42 -179 117q-68 76 -98 178q-30 103 -30 223q0 194 68 310t183 179 q117 64 268 83q153 20 325 24l244 6v274q0 165 -68 253q-68 87 -210 87q-111 0 -201 -31q-93 -32 -175 -73l-76 -234h-132v454l175 26q55 8 169 22q76 9 181 16q95 6 209 6zM1220 944l-168 -6q-87 -4 -152 -24q-62 -19 -107 -67q-43 -46 -64 -123q-21 -76 -21 -192 q0 -170 60 -250t156 -80t164 21q71 22 132 49v672zM1262 2244q-54 0 -99 13q-53 15 -90 32q-48 21 -81 44l-74 49l-50 38q-32 25 -59 42q-39 24 -62 34q-33 14 -59 14q-38 0 -61 -12q-24 -13 -37 -40q-14 -30 -23 -72q-10 -48 -17 -106h-210q8 112 30 216q23 105 70 183 q48 79 127 127t203 48q107 0 190 -43q82 -43 154 -93l51 -37q33 -24 60 -41q39 -24 62 -34q33 -14 57 -14q36 0 59 12t38 39q16 29 23 70l18 103h210q-7 -111 -30 -215q-23 -105 -70 -183q-49 -81 -128 -127q-80 -47 -202 -47z" />
<glyph unicode="&#xe4;" d="M1092 1922q151 0 284 -26q129 -25 224 -87q94 -61 146 -161t52 -246v-1222l188 -48v-132h-692l-44 144l-89 -58q-51 -32 -117 -60q-61 -27 -148 -47q-80 -19 -182 -19q-164 0 -275 42q-112 42 -179 117q-68 76 -98 178q-30 103 -30 223q0 194 68 310t183 179 q117 64 268 83q153 20 325 24l244 6v274q0 165 -68 253q-68 87 -210 87q-111 0 -201 -31q-93 -32 -175 -73l-76 -234h-132v454l175 26q55 8 169 22q76 9 181 16q95 6 209 6zM1220 944l-168 -6q-87 -4 -152 -24q-62 -19 -107 -67q-43 -46 -64 -123q-21 -76 -21 -192 q0 -170 60 -250t156 -80t164 21q71 22 132 49v672zM1364 2260q-49 0 -94 20q-44 20 -77 53q-32 32 -52 77q-19 42 -19 92q0 51 19 93q20 44 52 75q33 31 77 51q42 19 94 19t94 -19q45 -20 76 -51q32 -32 50 -75t18 -93q0 -48 -18 -92q-18 -43 -50 -77q-32 -33 -76 -53 q-45 -20 -94 -20zM692 2260q-47 0 -92 20q-44 20 -77 53t-53 77q-20 45 -20 92q0 48 20 93q19 43 53 75q33 31 77 51q42 19 92 19q51 0 93 -19q43 -19 75 -51t51 -75q19 -42 19 -93q0 -48 -18 -92q-18 -43 -50 -77q-32 -33 -76 -53q-45 -20 -94 -20z" />
<glyph unicode="&#xe5;" d="M1092 1922q151 0 284 -26q129 -25 224 -87q94 -61 146 -161t52 -246v-1222l188 -48v-132h-692l-44 144l-89 -58q-51 -32 -117 -60q-61 -27 -148 -47q-80 -19 -182 -19q-164 0 -275 42q-112 42 -179 117q-68 76 -98 178q-30 103 -30 223q0 194 68 310t183 179 q117 64 268 83q153 20 325 24l244 6v274q0 165 -68 253q-68 87 -210 87q-111 0 -201 -31q-93 -32 -175 -73l-76 -234h-132v454l175 26q55 8 169 22q76 9 181 16q95 6 209 6zM1220 944l-168 -6q-87 -4 -152 -24q-62 -19 -107 -67q-43 -46 -64 -123q-21 -76 -21 -192 q0 -170 60 -250t156 -80t164 21q71 22 132 49v672zM1036 2118q-92 0 -167 34q-79 36 -134 92q-58 59 -89 135q-32 78 -32 165t32 165q32 77 89 134t134 90t167 33t167 -33t134 -90t89 -134q32 -78 32 -165t-32 -165q-31 -76 -89 -135q-55 -56 -134 -92q-75 -34 -167 -34z M1036 2742q-42 0 -75 -16q-36 -17 -62 -43t-43 -63q-16 -35 -16 -76q0 -42 16 -75q17 -36 43 -62t62 -43q33 -16 75 -16t75 16q36 17 62 43t43 62q16 33 16 75q0 41 -16 76q-17 37 -43 63t-62 43q-33 16 -75 16z" />
<glyph unicode="&#xe6;" horiz-adv-x="2958" d="M1976 1930q166 0 318 -41q151 -41 263 -138q114 -98 179 -259q66 -162 66 -404v-164h-1046v-106q1 -108 20 -221q18 -109 75 -195q58 -87 163 -139q108 -53 284 -53q44 0 106 5q40 3 112 13q56 8 108 18q59 12 96 22v-154q-38 -26 -105 -56q-61 -28 -139 -49 q-72 -20 -162 -34q-82 -13 -174 -13q-272 0 -443 63q-170 62 -277 185q-55 -44 -129 -91q-71 -45 -160 -80q-88 -34 -194 -57q-103 -22 -227 -22q-166 0 -277 42q-110 42 -178 117q-66 74 -95 178q-28 102 -28 223q0 131 34 224q35 96 95 159q61 65 144 105t180 63 q101 23 204 32q94 8 217 13l198 6v270q0 78 -13 139q-13 62 -45 109q-30 45 -86 71q-53 25 -134 25q-93 0 -189 -29q-91 -27 -171 -73l-78 -236h-130v452q65 13 149 27q59 10 168 23q78 9 177 16q90 6 176 6q148 0 267 -32q118 -32 197 -108q91 73 210 110q122 38 274 38z M932 202q113 0 206 37q98 39 184 89q-15 18 -37 63q-21 43 -39 108t-30 150t-12 191v104l-148 -6q-81 -5 -145 -21t-110 -61q-45 -43 -69 -122q-24 -78 -24 -202q0 -171 64 -250q65 -80 160 -80zM2008 1724q-76 0 -125 -42q-48 -41 -77 -118q-27 -73 -38 -186 q-10 -104 -10 -244h456q0 164 -10 271q-11 115 -34 183q-24 70 -64 103t-98 33z" />
<glyph unicode="&#xe7;" horiz-adv-x="1818" d="M1716 114q-47 -37 -113 -66q-58 -26 -142 -47q-69 -18 -159 -29q-79 -10 -162 -10q-269 0 -458 67q-190 67 -310 193q-121 127 -176 308q-56 183 -56 414q0 256 74 445q73 187 201 307t295 177q168 57 354 57q172 0 325 -21q159 -22 285 -49v-556h-144l-84 330 q-34 26 -63 41q-36 19 -67 28q-42 12 -79 16q-48 5 -99 5q-78 0 -152 -45q-75 -46 -133 -138q-59 -94 -95 -239q-36 -146 -36 -346q0 -165 23 -306q23 -139 81 -236q60 -99 160 -151q103 -53 258 -53q133 0 257 16q126 16 215 42v-154zM880 -844q-78 0 -164 16 q-90 17 -156 46v180q64 -17 144 -28q73 -10 126 -10q102 0 143 50t41 122q0 88 -62 135q-61 46 -200 57l102 390h222l-46 -220q82 -12 150 -36q66 -24 117 -65q49 -40 76 -99q27 -58 27 -136q0 -101 -40 -175q-42 -77 -110 -125q-73 -51 -165 -76q-96 -26 -205 -26z" />
<glyph unicode="&#xe8;" horiz-adv-x="1818" d="M988 1926q168 0 300 -40q135 -41 228 -137q94 -97 145 -258t51 -403v-164h-986v-32q0 -128 11 -257q11 -124 60 -218q50 -96 150 -151q101 -56 279 -56q118 0 230 18q119 19 214 40v-154q-44 -27 -116 -56q-67 -27 -153 -49q-76 -19 -175 -34q-88 -13 -182 -13 q-243 0 -414 64q-172 64 -281 190q-110 126 -159 310q-50 186 -50 424q0 493 211 734q212 242 637 242zM966 1724q-72 0 -118 -42t-73 -118q-26 -75 -37 -186q-10 -104 -10 -244h436q0 122 -5 244q-5 110 -24 186q-20 77 -59 118q-40 42 -110 42zM1142 2236l-728 536v74h570 l330 -546v-64h-172z" />
<glyph unicode="&#xe9;" horiz-adv-x="1818" d="M988 1926q168 0 300 -40q135 -41 228 -137q94 -97 145 -258t51 -403v-164h-986v-32q0 -128 11 -257q11 -124 60 -218q50 -96 150 -151q101 -56 279 -56q118 0 230 18q119 19 214 40v-154q-44 -27 -116 -56q-67 -27 -153 -49q-76 -19 -175 -34q-88 -13 -182 -13 q-243 0 -414 64q-172 64 -281 190q-110 126 -159 310q-50 186 -50 424q0 493 211 734q212 242 637 242zM966 1724q-72 0 -118 -42t-73 -118q-26 -75 -37 -186q-10 -104 -10 -244h436q0 122 -5 244q-5 110 -24 186q-20 77 -59 118q-40 42 -110 42zM716 2236v66l332 544h570 v-74l-730 -536h-172z" />
<glyph unicode="&#xea;" horiz-adv-x="1818" d="M988 1926q168 0 300 -40q135 -41 228 -137q94 -97 145 -258t51 -403v-164h-986v-32q0 -128 11 -257q11 -124 60 -218q50 -96 150 -151q101 -56 279 -56q118 0 230 18q119 19 214 40v-154q-44 -27 -116 -56q-67 -27 -153 -49q-76 -19 -175 -34q-88 -13 -182 -13 q-243 0 -414 64q-172 64 -281 190q-110 126 -159 310q-50 186 -50 424q0 493 211 734q212 242 637 242zM966 1724q-72 0 -118 -42t-73 -118q-26 -75 -37 -186q-10 -104 -10 -244h436q0 122 -5 244q-5 110 -24 186q-20 77 -59 118q-40 42 -110 42zM308 2236v66l436 586h426 l434 -586v-66h-152l-496 324l-496 -324h-152z" />
<glyph unicode="&#xeb;" horiz-adv-x="1818" d="M988 1926q168 0 300 -40q135 -41 228 -137q94 -97 145 -258t51 -403v-164h-986v-32q0 -128 11 -257q11 -124 60 -218q50 -96 150 -151q101 -56 279 -56q118 0 230 18q119 19 214 40v-154q-44 -27 -116 -56q-67 -27 -153 -49q-76 -19 -175 -34q-88 -13 -182 -13 q-243 0 -414 64q-172 64 -281 190q-110 126 -159 310q-50 186 -50 424q0 493 211 734q212 242 637 242zM966 1724q-72 0 -118 -42t-73 -118q-26 -75 -37 -186q-10 -104 -10 -244h436q0 122 -5 244q-5 110 -24 186q-20 77 -59 118q-40 42 -110 42zM1284 2260q-49 0 -94 20 q-44 20 -77 53q-32 32 -52 77q-19 42 -19 92q0 51 19 93q20 44 52 75q33 31 77 51q42 19 94 19t94 -19q45 -20 76 -51q32 -32 50 -75t18 -93q0 -48 -18 -92q-18 -43 -50 -77q-32 -33 -76 -53q-45 -20 -94 -20zM612 2260q-47 0 -92 20q-44 20 -77 53t-53 77q-20 45 -20 92 q0 48 20 93q19 43 53 75q33 31 77 51q42 19 92 19q51 0 93 -19q43 -19 75 -51t51 -75q19 -42 19 -93q0 -48 -18 -92q-18 -43 -50 -77q-32 -33 -76 -53q-45 -20 -94 -20z" />
<glyph unicode="&#xec;" horiz-adv-x="1138" d="M872 180l206 -48v-132h-988v132l204 48v1520l-192 48v132h770v-1700zM704 2236l-728 536v74h570l330 -546v-64h-172z" />
<glyph unicode="&#xed;" horiz-adv-x="1138" d="M872 180l206 -48v-132h-988v132l204 48v1520l-192 48v132h770v-1700zM286 2236v66l332 544h570v-74l-730 -536h-172z" />
<glyph unicode="&#xee;" horiz-adv-x="1138" d="M872 180l206 -48v-132h-988v132l204 48v1520l-192 48v132h770v-1700zM-72 2236v66l436 586h426l434 -586v-66h-152l-496 324l-496 -324h-152z" />
<glyph unicode="&#xef;" horiz-adv-x="1138" d="M872 180l206 -48v-132h-988v132l204 48v1520l-192 48v132h770v-1700zM920 2260q-49 0 -94 20q-44 20 -77 53q-32 32 -52 77q-19 42 -19 92q0 51 19 93q20 44 52 75q33 31 77 51q42 19 94 19t94 -19q45 -20 76 -51q32 -32 50 -75t18 -93q0 -48 -18 -92q-18 -43 -50 -77 q-32 -33 -76 -53q-45 -20 -94 -20zM248 2260q-47 0 -92 20q-44 20 -77 53t-53 77q-20 45 -20 92q0 48 20 93q19 43 53 75q33 31 77 51q42 19 92 19q51 0 93 -19q43 -19 75 -51t51 -75q19 -42 19 -93q0 -48 -18 -92q-18 -43 -50 -77q-32 -33 -76 -53q-45 -20 -94 -20z" />
<glyph unicode="&#xf0;" d="M458 2234l346 200q-79 59 -169 108q-92 50 -199 84v216q180 -41 332 -103q158 -64 300 -151l570 330v-248l-382 -222q144 -119 258 -268q117 -152 199 -335q82 -184 129 -406q45 -215 50 -481v-70q0 -449 -214 -688q-214 -240 -666 -240q-424 0 -640 238t-216 690 q0 446 216 682t656 236q58 0 109 -3q53 -3 97 -13q-29 120 -92 245q-64 127 -174 243l-510 -296v252zM1306 890q0 170 -15 304q-15 137 -49 226q-35 94 -89 140q-55 48 -137 48t-135 -48q-52 -48 -84 -140q-31 -89 -43 -226q-12 -134 -12 -304q0 -172 12 -307 q12 -136 43 -229q31 -94 84 -144t135 -50q81 0 137 50q54 48 89 144q34 93 49 229q15 135 15 307z" />
<glyph unicode="&#xf1;" horiz-adv-x="2278" d="M868 1716l136 70q81 41 156 70q88 33 170 53q88 21 178 21q114 0 210 -30t165 -96q70 -67 107 -172q38 -108 38 -256v-1196l188 -48v-132h-934v132l168 48v1118q0 167 -71 262q-70 94 -203 94q-151 0 -304 -68v-1406l172 -48v-132h-934v132l184 48v1520l-184 48v132h730z M1414 2244q-54 0 -99 13q-53 15 -90 32q-48 21 -81 44l-74 49l-50 38q-32 25 -59 42q-39 24 -62 34q-33 14 -59 14q-38 0 -61 -12q-24 -13 -37 -40q-14 -30 -23 -72q-10 -48 -17 -106h-210q8 112 30 216q23 105 70 183q48 79 127 127t203 48q107 0 190 -43q82 -43 154 -93 l51 -37q33 -24 60 -41q39 -24 62 -34q33 -14 57 -14q36 0 59 12t38 39q16 29 23 70l18 103h210q-7 -111 -30 -215q-23 -105 -70 -183q-49 -81 -128 -127q-80 -47 -202 -47z" />
<glyph unicode="&#xf2;" d="M1892 950q0 -241 -49 -424q-50 -186 -155 -310q-107 -127 -273 -191q-168 -65 -403 -65q-223 0 -384 64q-163 65 -267 190q-106 127 -155 311q-50 186 -50 425q0 236 50 421q49 182 156 307q105 123 271 188q164 64 395 64q446 0 655 -249q209 -250 209 -731zM1306 950 q0 194 -12 340q-12 145 -44 244q-31 97 -88 146q-56 48 -146 48q-88 0 -142 -48t-83 -146q-28 -97 -39 -244q-10 -139 -10 -340q0 -203 10 -343q10 -146 39 -247q28 -100 83 -150t142 -50q90 0 146 50q57 51 88 150q32 103 44 247q12 147 12 343zM1182 2236l-728 536v74h570 l330 -546v-64h-172z" />
<glyph unicode="&#xf3;" d="M1892 950q0 -241 -49 -424q-50 -186 -155 -310q-107 -127 -273 -191q-168 -65 -403 -65q-223 0 -384 64q-163 65 -267 190q-106 127 -155 311q-50 186 -50 425q0 236 50 421q49 182 156 307q105 123 271 188q164 64 395 64q446 0 655 -249q209 -250 209 -731zM1306 950 q0 194 -12 340q-12 145 -44 244q-31 97 -88 146q-56 48 -146 48q-88 0 -142 -48t-83 -146q-28 -97 -39 -244q-10 -139 -10 -340q0 -203 10 -343q10 -146 39 -247q28 -100 83 -150t142 -50q90 0 146 50q57 51 88 150q32 103 44 247q12 147 12 343zM750 2236v66l332 544h570 v-74l-730 -536h-172z" />
<glyph unicode="&#xf4;" d="M1892 950q0 -241 -49 -424q-50 -186 -155 -310q-107 -127 -273 -191q-168 -65 -403 -65q-223 0 -384 64q-163 65 -267 190q-106 127 -155 311q-50 186 -50 425q0 236 50 421q49 182 156 307q105 123 271 188q164 64 395 64q446 0 655 -249q209 -250 209 -731zM1306 950 q0 194 -12 340q-12 145 -44 244q-31 97 -88 146q-56 48 -146 48q-88 0 -142 -48t-83 -146q-28 -97 -39 -244q-10 -139 -10 -340q0 -203 10 -343q10 -146 39 -247q28 -100 83 -150t142 -50q90 0 146 50q57 51 88 150q32 103 44 247q12 147 12 343zM372 2236v66l436 586h426 l434 -586v-66h-152l-496 324l-496 -324h-152z" />
<glyph unicode="&#xf5;" d="M1892 950q0 -241 -49 -424q-50 -186 -155 -310q-107 -127 -273 -191q-168 -65 -403 -65q-223 0 -384 64q-163 65 -267 190q-106 127 -155 311q-50 186 -50 425q0 236 50 421q49 182 156 307q105 123 271 188q164 64 395 64q446 0 655 -249q209 -250 209 -731zM1306 950 q0 194 -12 340q-12 145 -44 244q-31 97 -88 146q-56 48 -146 48q-88 0 -142 -48t-83 -146q-28 -97 -39 -244q-10 -139 -10 -340q0 -203 10 -343q10 -146 39 -247q28 -100 83 -150t142 -50q90 0 146 50q57 51 88 150q32 103 44 247q12 147 12 343zM1258 2244q-54 0 -99 13 q-53 15 -90 32q-48 21 -81 44l-74 49l-50 38q-32 25 -59 42q-39 24 -62 34q-33 14 -59 14q-38 0 -61 -12q-24 -13 -37 -40q-14 -30 -23 -72q-10 -48 -17 -106h-210q8 112 30 216q23 105 70 183q48 79 127 127t203 48q107 0 190 -43q82 -43 154 -93l51 -37q33 -24 60 -41 q39 -24 62 -34q33 -14 57 -14q36 0 59 12t38 39q16 29 23 70l18 103h210q-7 -111 -30 -215q-23 -105 -70 -183q-49 -81 -128 -127q-80 -47 -202 -47z" />
<glyph unicode="&#xf6;" d="M1892 950q0 -241 -49 -424q-50 -186 -155 -310q-107 -127 -273 -191q-168 -65 -403 -65q-223 0 -384 64q-163 65 -267 190q-106 127 -155 311q-50 186 -50 425q0 236 50 421q49 182 156 307q105 123 271 188q164 64 395 64q446 0 655 -249q209 -250 209 -731zM1306 950 q0 194 -12 340q-12 145 -44 244q-31 97 -88 146q-56 48 -146 48q-88 0 -142 -48t-83 -146q-28 -97 -39 -244q-10 -139 -10 -340q0 -203 10 -343q10 -146 39 -247q28 -100 83 -150t142 -50q90 0 146 50q57 51 88 150q32 103 44 247q12 147 12 343zM1360 2260q-49 0 -94 20 q-44 20 -77 53q-32 32 -52 77q-19 42 -19 92q0 51 19 93q20 44 52 75q33 31 77 51q42 19 94 19t94 -19q45 -20 76 -51q32 -32 50 -75t18 -93q0 -48 -18 -92q-18 -43 -50 -77q-32 -33 -76 -53q-45 -20 -94 -20zM688 2260q-47 0 -92 20q-44 20 -77 53t-53 77q-20 45 -20 92 q0 48 20 93q19 43 53 75q33 31 77 51q42 19 92 19q51 0 93 -19q43 -19 75 -51t51 -75q19 -42 19 -93q0 -48 -18 -92q-18 -43 -50 -77q-32 -33 -76 -53q-45 -20 -94 -20z" />
<glyph unicode="&#xf7;" horiz-adv-x="2248" d="M2076 1502v-286h-1904v286h1904zM1122 366q-56 0 -105 21t-85 57t-57 85t-21 105t21 105t57 85t85 57t105 21t105 -21t85 -57t57 -85t21 -105t-21 -105t-57 -85t-85 -57t-105 -21zM1122 1818q-56 0 -105 21t-85 57t-57 85t-21 105t21 105t57 85t85 57t105 21t105 -21 t85 -57t57 -85t21 -105t-21 -105t-57 -85t-85 -57t-105 -21z" />
<glyph unicode="&#xf8;" d="M384 188q-117 125 -173 316q-55 189 -55 446q0 236 50 421q49 182 156 307q105 123 271 188q164 64 395 64q288 0 478 -106l150 220h248l-236 -346q114 -124 169 -311q55 -186 55 -437q0 -241 -49 -424q-50 -186 -155 -310q-107 -127 -273 -191q-168 -65 -403 -65 q-275 0 -462 100l-154 -228h-256zM742 950v-122q0 -64 4 -112l520 760q-30 125 -89 189q-59 63 -161 63q-88 0 -142 -48t-83 -146q-28 -97 -39 -244q-10 -139 -10 -340zM1306 950q0 75 -1 110l-3 102l-522 -764q29 -121 84 -179q56 -59 152 -59q90 0 146 50q57 51 88 150 q32 103 44 247q12 147 12 343z" />
<glyph unicode="&#xf9;" horiz-adv-x="2278" d="M1410 164l-136 -70q-81 -41 -156 -70q-88 -33 -170 -53q-88 -21 -178 -21q-114 0 -210 30t-165 96q-70 67 -107 172q-38 108 -38 256v1196l-188 48v132h766v-1298q0 -167 71 -262q70 -94 203 -94q151 0 304 68v1406l-172 48v132h750v-1700l184 -48v-132h-730zM1262 2236 l-728 536v74h570l330 -546v-64h-172z" />
<glyph unicode="&#xfa;" horiz-adv-x="2278" d="M1410 164l-136 -70q-81 -41 -156 -70q-88 -33 -170 -53q-88 -21 -178 -21q-114 0 -210 30t-165 96q-70 67 -107 172q-38 108 -38 256v1196l-188 48v132h766v-1298q0 -167 71 -262q70 -94 203 -94q151 0 304 68v1406l-172 48v132h750v-1700l184 -48v-132h-730zM832 2236 v66l332 544h570v-74l-730 -536h-172z" />
<glyph unicode="&#xfb;" horiz-adv-x="2278" d="M1410 164l-136 -70q-81 -41 -156 -70q-88 -33 -170 -53q-88 -21 -178 -21q-114 0 -210 30t-165 96q-70 67 -107 172q-38 108 -38 256v1196l-188 48v132h766v-1298q0 -167 71 -262q70 -94 203 -94q151 0 304 68v1406l-172 48v132h750v-1700l184 -48v-132h-730zM478 2236 v66l436 586h426l434 -586v-66h-152l-496 324l-496 -324h-152z" />
<glyph unicode="&#xfc;" horiz-adv-x="2278" d="M1410 164l-136 -70q-81 -41 -156 -70q-88 -33 -170 -53q-88 -21 -178 -21q-114 0 -210 30t-165 96q-70 67 -107 172q-38 108 -38 256v1196l-188 48v132h766v-1298q0 -167 71 -262q70 -94 203 -94q151 0 304 68v1406l-172 48v132h750v-1700l184 -48v-132h-730zM1470 2260 q-49 0 -94 20q-44 20 -77 53q-32 32 -52 77q-19 42 -19 92q0 51 19 93q20 44 52 75q33 31 77 51q42 19 94 19t94 -19q45 -20 76 -51q32 -32 50 -75t18 -93q0 -48 -18 -92q-18 -43 -50 -77q-32 -33 -76 -53q-45 -20 -94 -20zM798 2260q-47 0 -92 20q-44 20 -77 53t-53 77 q-20 45 -20 92q0 48 20 93q19 43 53 75q33 31 77 51q42 19 92 19q51 0 93 -19q43 -19 75 -51t51 -75q19 -42 19 -93q0 -48 -18 -92q-18 -43 -50 -77q-32 -33 -76 -53q-45 -20 -94 -20z" />
<glyph unicode="&#xfd;" d="M924 -58l-752 1758l-132 48v132h962v-132l-224 -52l442 -1040l394 1044l-220 48v132h614v-132l-136 -40l-742 -1826q-69 -176 -130 -304q-66 -140 -147 -243q-79 -101 -185 -161q-103 -58 -242 -58q-43 0 -97 2q-28 1 -78 7q-35 4 -74 12q-62 12 -81 17v484h120l86 -252 q27 -22 63 -34q35 -12 85 -12q82 0 143 42t111 113q48 69 93 166l91 201zM824 2236v66l332 544h570v-74l-730 -536h-172z" />
<glyph unicode="&#xfe;" horiz-adv-x="2278" d="M258 2666l-230 46v130h808v-690q0 -84 -4 -173q-5 -116 -14 -195q40 27 94 57q46 25 109 46q55 18 131 31q72 12 164 12q416 0 625 -239t209 -735q0 -229 -52 -412q-53 -185 -158 -314q-106 -130 -269 -200q-162 -70 -385 -70q-112 0 -229 13q-127 14 -233 41 q1 -8 2.5 -29t2.5 -31q2 -27 4 -81l2 -84q1 -27 1 -71v-410l276 -48v-132h-1058v132l204 48v3358zM1564 940q0 215 -32 366q-31 146 -85 237q-53 90 -120 127q-68 38 -137 38q-114 0 -196 -24q-78 -23 -158 -62v-1416q162 -42 338 -42q180 0 285 197t105 579z" />
<glyph unicode="&#xff;" d="M924 -58l-752 1758l-132 48v132h962v-132l-224 -52l442 -1040l394 1044l-220 48v132h614v-132l-136 -40l-742 -1826q-69 -176 -130 -304q-66 -140 -147 -243q-79 -101 -185 -161q-103 -58 -242 -58q-43 0 -97 2q-28 1 -78 7q-35 4 -74 12q-62 12 -81 17v484h120l86 -252 q27 -22 63 -34q35 -12 85 -12q82 0 143 42t111 113q48 69 93 166l91 201zM1414 2260q-49 0 -94 20q-44 20 -77 53q-32 32 -52 77q-19 42 -19 92q0 51 19 93q20 44 52 75q33 31 77 51q42 19 94 19t94 -19q45 -20 76 -51q32 -32 50 -75t18 -93q0 -48 -18 -92q-18 -43 -50 -77 q-32 -33 -76 -53q-45 -20 -94 -20zM742 2260q-47 0 -92 20q-44 20 -77 53t-53 77q-20 45 -20 92q0 48 20 93q19 43 53 75q33 31 77 51q42 19 92 19q51 0 93 -19q43 -19 75 -51t51 -75q19 -42 19 -93q0 -48 -18 -92q-18 -43 -50 -77q-32 -33 -76 -53q-45 -20 -94 -20z" />
<glyph unicode="&#x131;" horiz-adv-x="1138" d="M872 180l206 -48v-132h-988v132l204 48v1520l-192 48v132h770v-1700z" />
<glyph unicode="&#x152;" horiz-adv-x="4096" d="M226 1350q0 355 92 611t270 419q181 165 437 241q261 77 595 77q87 0 178 -4q101 -4 214 -12h1706v-682h-182l-64 434q-74 9 -159 14q-94 6 -194 9q-61 2 -186 4q-58 1 -133 1h-216v-984h526l62 296h178v-824h-178l-62 304h-526v-1034h306q124 0 238 3q137 4 206 7 q104 5 159 10q67 6 97 12l114 496h182l-38 -748h-1870q-54 -3 -195 -10q-83 -4 -163 -4q-322 0 -582 80q-257 79 -439 246q-181 166 -277 424t-96 614zM890 1350q0 -283 34 -497q34 -217 118 -365t225 -225q142 -77 353 -77q22 0 84 2q46 1 91 6q45 4 87 12t72 18v2234 q-24 8 -73 17q-40 7 -86 12q-60 6 -91 7q-62 2 -84 2q-211 0 -353 -74q-140 -73 -225 -220q-83 -144 -118 -360q-34 -211 -34 -492z" />
<glyph unicode="&#x153;" horiz-adv-x="2958" d="M2092 1926q171 0 312 -40q143 -41 244 -137q102 -97 159 -258t57 -403v-164h-1046v-32q0 -139 13 -257q14 -125 67 -218q55 -96 160 -151q107 -56 292 -56q122 0 225 18q115 20 211 40v-154q-96 -59 -224 -105q-132 -47 -314 -47q-252 0 -423 72q-172 72 -279 196 q-90 -126 -235 -198t-369 -72q-223 0 -382 64q-160 64 -263 190q-102 124 -152 311q-49 183 -49 425q0 238 48 421q48 181 152 307q102 122 268 188q162 64 394 64q201 0 340 -65q137 -64 228 -179q89 111 228 176q137 64 338 64zM1226 950q0 201 -10 340q-11 149 -40 244 q-30 99 -85 146q-55 48 -145 48q-88 0 -140 -48q-51 -47 -80 -146q-28 -97 -36 -244q-8 -155 -8 -340q0 -186 8 -343q7 -146 36 -247q29 -102 80 -150q53 -50 140 -50q89 0 145 50q55 49 85 150q29 98 40 247q10 140 10 343zM2070 1724q-78 0 -127 -42t-76 -118 q-26 -75 -37 -186q-10 -104 -10 -244h456q0 147 -4 244q-5 114 -23 186q-19 76 -61 118t-118 42z" />
<glyph unicode="&#x178;" horiz-adv-x="2958" d="M1822 1056v-856l426 -54v-146h-1484v146l426 54v844l-816 1440l-302 52v146h1380v-146l-360 -52l612 -1124l592 1124l-328 52v146h912v-146l-284 -52zM1900 2928q-49 0 -94 20q-44 20 -77 53q-32 32 -52 77q-19 42 -19 92q0 51 19 93q20 44 52 75q33 31 77 51 q42 19 94 19t94 -19q45 -20 76 -51q32 -32 50 -75t18 -93q0 -48 -18 -92q-18 -43 -50 -77q-32 -33 -76 -53q-45 -20 -94 -20zM1228 2928q-47 0 -92 20q-44 20 -77 53t-53 77q-20 45 -20 92q0 48 20 93q19 43 53 75q33 31 77 51q42 19 92 19q51 0 93 -19q43 -19 75 -51 t51 -75q19 -42 19 -93q0 -48 -18 -92q-18 -43 -50 -77q-32 -33 -76 -53q-45 -20 -94 -20z" />
<glyph unicode="&#x2c6;" horiz-adv-x="1364" d="M36 2236v66l436 586h426l434 -586v-66h-152l-496 324l-496 -324h-152z" />
<glyph unicode="&#x2da;" horiz-adv-x="1364" d="M684 2118q-92 0 -167 34q-79 36 -134 92q-58 59 -89 135q-32 78 -32 165t32 165q32 77 89 134t134 90t167 33t167 -33t134 -90t89 -134q32 -78 32 -165t-32 -165q-31 -76 -89 -135q-55 -56 -134 -92q-75 -34 -167 -34zM684 2742q-42 0 -75 -16q-36 -17 -62 -43t-43 -63 q-16 -35 -16 -76q0 -42 16 -75q17 -36 43 -62t62 -43q33 -16 75 -16t75 16q36 17 62 43t43 62q16 33 16 75q0 41 -16 76q-17 37 -43 63t-62 43q-33 16 -75 16z" />
<glyph unicode="&#x2dc;" horiz-adv-x="1364" d="M930 2240q-54 0 -99 13q-53 15 -90 32q-48 21 -81 44l-74 49l-50 38q-32 25 -59 42q-39 24 -62 34q-33 14 -59 14q-38 0 -61 -12q-24 -13 -37 -40q-14 -30 -23 -72q-10 -48 -17 -106h-210q8 112 30 216q23 105 70 183q48 79 127 127t203 48q107 0 190 -43q82 -43 154 -93 l51 -37q33 -24 60 -41q39 -24 62 -34q33 -14 57 -14q36 0 59 12t38 39q16 29 23 70l18 103h210q-7 -111 -30 -215q-23 -105 -70 -183q-49 -81 -128 -127q-80 -47 -202 -47z" />
<glyph unicode="&#x2000;" horiz-adv-x="1778" />
<glyph unicode="&#x2001;" horiz-adv-x="3556" />
<glyph unicode="&#x2002;" horiz-adv-x="1778" />
<glyph unicode="&#x2003;" horiz-adv-x="3556" />
<glyph unicode="&#x2004;" horiz-adv-x="1184" />
<glyph unicode="&#x2005;" horiz-adv-x="888" />
<glyph unicode="&#x2006;" horiz-adv-x="592" />
<glyph unicode="&#x2007;" horiz-adv-x="592" />
<glyph unicode="&#x2008;" horiz-adv-x="444" />
<glyph unicode="&#x2009;" horiz-adv-x="710" />
<glyph unicode="&#x200a;" horiz-adv-x="196" />
<glyph unicode="&#x2010;" horiz-adv-x="1364" d="M150 790v348h1064v-348h-1064z" />
<glyph unicode="&#x2011;" horiz-adv-x="1364" d="M150 790v348h1064v-348h-1064z" />
<glyph unicode="&#x2013;" d="M2076 1098v-286h-2104v286h2104z" />
<glyph unicode="&#x2014;" horiz-adv-x="4096" d="M4124 1098v-286h-4152v286h4152z" />
<glyph unicode="&#x2018;" horiz-adv-x="1364" d="M322 1872q0 143 46 271q47 130 144 239t253 197q152 86 373 145v-184q-117 -35 -192 -83q-80 -51 -125 -103q-48 -56 -68 -106q-21 -52 -21 -90q0 -42 23 -68q23 -27 57 -47q40 -25 74 -42q39 -20 74 -52t57 -77q23 -48 23 -118q0 -65 -25 -114q-26 -51 -68 -84 q-43 -34 -103 -52t-128 -18q-76 0 -145 25q-72 26 -126 74t-89 121q-34 71 -34 166z" />
<glyph unicode="&#x2019;" horiz-adv-x="1364" d="M1070 2334q0 -142 -45 -270q-45 -127 -143 -237q-96 -107 -253 -196q-153 -86 -375 -145v186q117 35 192 83q79 50 125 102q47 54 68 105q21 52 21 90q0 42 -23 68q-22 25 -56 48t-73 42q-37 18 -73 52q-34 32 -56 78q-23 48 -23 118q0 64 24 114t67 84q44 35 101 51 q60 17 128 17q76 0 145 -25q72 -26 127 -75q56 -50 89 -122t33 -168z" />
<glyph unicode="&#x201a;" horiz-adv-x="1364" d="M1048 212q0 -142 -45 -270t-142 -237t-252 -195t-375 -144v184q118 36 191 83q79 51 124 102q47 54 68 105q21 52 21 90q0 41 -22 67q-24 28 -56 48q-38 23 -73 42q-36 20 -73 53q-33 30 -56 78q-22 45 -22 118q0 64 24 114t67 84q44 35 101 51q60 17 128 17 q76 0 145 -25q71 -25 126 -75q54 -48 88 -122q33 -72 33 -168z" />
<glyph unicode="&#x201c;" d="M198 1872q0 143 46 271q47 130 144 239t253 197q152 86 373 145v-184q-117 -35 -192 -83q-80 -51 -125 -103q-48 -56 -68 -106q-21 -52 -21 -90q0 -42 23 -68q23 -27 57 -47q40 -25 74 -42q39 -20 74 -52t57 -77q23 -48 23 -118q0 -65 -25 -114q-26 -51 -68 -84 q-43 -34 -103 -52t-128 -18q-76 0 -145 25q-72 26 -126 74t-89 121q-34 71 -34 166zM1098 1872q0 143 46 271q47 130 144 239t253 197q152 86 373 145v-184q-117 -35 -192 -83q-80 -51 -125 -103q-48 -56 -68 -106q-21 -52 -21 -90q0 -42 23 -68q23 -27 57 -47 q40 -25 74 -42q39 -20 74 -52t57 -77q23 -48 23 -118q0 -65 -25 -114q-26 -51 -68 -84q-43 -34 -103 -52t-128 -18q-76 0 -145 25q-72 26 -126 74t-89 121q-34 71 -34 166z" />
<glyph unicode="&#x201d;" d="M1864 2334q0 -142 -45 -270t-142 -237q-98 -110 -251 -196t-372 -145v186q118 36 191 83q79 51 124 102q47 54 68 105q21 52 21 90q0 42 -23 68t-57 48q-36 24 -73 42q-35 18 -73 52q-34 32 -57 78q-23 48 -23 118q0 64 24 114q24 49 68 84q43 34 103 51t129 17 q75 0 144 -25q70 -25 124 -75q54 -49 87 -122q33 -72 33 -168zM968 2334q0 -144 -46 -270q-46 -128 -144 -237q-97 -108 -252 -196q-153 -86 -372 -145v186q118 36 191 83q79 51 124 102q47 54 68 105q21 52 21 90q0 42 -23 68t-57 48q-36 24 -73 42q-35 18 -73 52 q-34 32 -57 78q-23 48 -23 118q0 64 24 114q24 49 68 84q43 34 103 51t129 17q75 0 144 -25t125 -75q53 -48 89 -122q34 -71 34 -168z" />
<glyph unicode="&#x201e;" d="M1832 212q0 -142 -45 -270t-142 -237t-252 -195t-375 -144v184q118 36 191 83q79 51 124 102q47 54 68 105q21 52 21 90q0 41 -22 67q-24 28 -56 48q-38 23 -73 42q-36 20 -73 53q-33 30 -56 78q-22 45 -22 118q0 130 90 198q91 68 230 68q76 0 145 -25q71 -25 126 -75 q54 -48 88 -122q33 -72 33 -168zM932 212q0 -142 -45 -270q-45 -127 -143 -237q-97 -108 -253 -195q-154 -85 -373 -144v184q118 36 191 83q79 51 124 102q47 54 68 105q21 52 21 90q0 41 -22 67q-24 28 -56 48q-38 23 -73 42q-36 20 -73 53q-33 30 -56 78q-22 45 -22 118 q0 130 90 198q91 68 230 68q76 0 145 -25q71 -25 126 -75q54 -48 88 -122q33 -72 33 -168z" />
<glyph unicode="&#x2022;" horiz-adv-x="1434" d="M716 802q-115 0 -217 44q-101 44 -176 119q-74 74 -118 176q-43 99 -43 215t43 215q44 102 118 176q75 75 176 119q102 44 217 44t217 -44q101 -44 176 -119q74 -74 118 -176q43 -99 43 -215t-43 -215q-44 -102 -118 -176q-75 -75 -176 -119q-102 -44 -217 -44z" />
<glyph unicode="&#x2026;" horiz-adv-x="4096" d="M672 -58q-69 0 -130 26q-59 25 -105 71t-71 105q-26 61 -26 130q0 66 26 129q25 60 71 106t105 71q61 26 130 26q66 0 129 -26q60 -25 106 -71t71 -106q26 -63 26 -129q0 -69 -26 -130q-25 -59 -71 -105t-106 -71q-63 -26 -129 -26zM2052 -58q-69 0 -130 26 q-59 25 -105 71t-71 105q-26 61 -26 130q0 66 26 129q25 60 71 106t105 71q61 26 130 26q66 0 129 -26q60 -25 106 -71t71 -106q26 -63 26 -129q0 -69 -26 -130q-25 -59 -71 -105t-106 -71q-63 -26 -129 -26zM3432 -58q-69 0 -130 26q-59 25 -105 71t-71 105q-26 61 -26 130 q0 66 26 129q25 60 71 106t105 71q61 26 130 26q66 0 129 -26q60 -25 106 -71t71 -106q26 -63 26 -129q0 -69 -26 -130q-25 -59 -71 -105t-106 -71q-63 -26 -129 -26z" />
<glyph unicode="&#x202f;" horiz-adv-x="710" />
<glyph unicode="&#x2039;" horiz-adv-x="1364" d="M252 990l660 712h200l-364 -778l364 -776h-200l-660 710v132z" />
<glyph unicode="&#x203a;" horiz-adv-x="1364" d="M1112 860l-660 -712h-200l364 778l-364 778h200l660 -712v-132z" />
<glyph unicode="&#x2044;" horiz-adv-x="684" d="M-500 0h-246l1930 2682h240z" />
<glyph unicode="&#x2215;" horiz-adv-x="684" d="M-500 0h-246l1930 2682h240z" />
<glyph unicode="&#x205f;" horiz-adv-x="888" />
<glyph unicode="&#x20ac;" d="M52 1188h220q-2 28 -3 66q-1 25 -1 68v75q0 40 4 79h-220v202h236q62 530 320 782t698 252q113 0 189 -4q91 -5 161 -13q73 -9 149 -21q85 -14 153 -28l8 -570h-178l-56 300q-79 61 -175 96q-93 34 -201 34q-100 0 -183 -44q-82 -43 -147 -143q-63 -97 -107 -256 q-42 -153 -59 -385h568v-202h-574q-6 -60 -6 -142q0 -49 1 -78q2 -51 5 -68h574v-202h-568q34 -416 171 -618q136 -202 341 -202q140 0 239 48t157 112l56 330h178l-8 -596q-127 -40 -298 -70q-168 -30 -374 -30q-224 0 -402 69q-176 68 -308 200q-128 128 -212 322 q-82 189 -112 435h-236v202z" />
<glyph unicode="&#x2122;" horiz-adv-x="4096" d="M460 1076v120l256 32v1322h-62q-78 0 -129 -3q-57 -3 -85 -7q-32 -4 -56 -9l-44 -9l-32 -298h-142v462h1484v-462h-142l-32 298l-49 9q-26 4 -65 9q-37 4 -88 6q-66 2 -120 2h-60v-1320l256 -32v-120h-890zM2772 1076h-66l-556 1290v-1138l206 -32v-120h-592v120l206 32 v1306l-206 32v120h670l428 -990l436 990h644v-120l-206 -32v-1306l206 -32v-120h-800v120l216 32v1172z" />
<glyph horiz-adv-x="1228" d="M1034 1382v-318h-336v318h-654v196l722 1104h268v-1054h160v-246h-160zM698 2294h-6l-430 -666h436v666z" />
</font>
</defs>
</svg>
